Browse Collections Artists Sources   Search Dates

Add Show    List Management    Help


Grateful Dead 11/10/73
Winterland Arena, San Francisco, CA
Comments Add Comment    Source Collectors    Add to Collection    Add to Want List    History
Source # 140704 Other Sources
Entered by Matt Vernon
Checksums flac-md5 , ffp
Disc Counts 0 / 0
Media Size
Date Circulated
Date Added
01/17/2018
01/17/2018
Source Summary flac16; Partial Show Source Info: Master Soundboard Reel > PCM; Transfer Info: PCM (Sony SL-10) > Sony PCM-601ESD > Behringer Ultramatch Pro > Tascam DA-3000 > Adobe Audition 3.0 > TLH flac16 
  Archive
Source Information - Download Text | Download Zip
Grateful Dead
Winterland Arena
San Francisco, CA
Saturday November 11, 1973

Source Info:
Master Soundboard Reel > PCM

Transfer Info:
PCM (Sony SL-10) > Sony PCM-601ESD > Behringer Ultramatch Pro > Tascam DA-3000 > Adobe Audition 3.0 > TLH flac16

Notes:
- Thanks to Charlie Miller for the source and the transfer
- Thanks to the folks responsible for the shnid3290 soundboard source which supplies a 0:22 patch in "Morning Dew" (patch source was pitch corrected to match this transcription)
- Clean "Uncle John's Band"

Mastered by Scott Clugston
January 17, 2018

End of Set 1:
01 - WRS Prelude > WRS Part 1 > Let It Grow

Start of Set 2:
02 - Just F'n Around
03 - Playing In The Band >
04 - Uncle John's Band >
05 - Morning Dew >
06 - Uncle John's Band Reprise >
07 - Playing Reprise
08 - Big River



    length     expanded size    cdr  WAVE problems  fmt   ratio  filename
    17:19.70      183444284 B   ---   --   ---xx   flac  0.5704  gd73-11-10 t01 Weather Report Suite.flac
     3:48.44       40322732 B   ---   --   ---xx   flac  0.4284  gd73-11-10 t02 F'n Around.flac
    12:03.41      127633676 B   ---   --   ---xx   flac  0.5787  gd73-11-10 t03 Playin' In The Band.flac
     9:32.66      101056076 B   ---   --   ---xx   flac  0.5648  gd73-11-10 t04 Uncle John's Band.flac
    12:29.14      132156572 B   ---   --   ---xx   flac  0.5206  gd73-11-10 t05 Morning Dew.flac
     6:35.63       69826220 B   ---   --   ---xx   flac  0.5635  gd73-11-10 t06 Uncle John's Band Reprise.flac
     3:50.08       40590860 B   ---   --   ---xx   flac  0.5463  gd73-11-10 t07 Playin' In The Band Reprise.flac
     4:48.56       50934956 B   ---   --   ---xx   flac  0.5658  gd73-11-10 t08 Big River.flac
    70:28.62      745965376 B                            0.5523  (8 files)

No errors occured.


Show Checksums
flac-md5
ed0d947e6ea803282b5e8ed0d777c275 *gd73-11-10 t01 Weather Report Suite.flac
8087848ffd68d04f3aa634b57f6e28eb *gd73-11-10 t02 F'n Around.flac
19a125c864e0805f40c27f457410e358 *gd73-11-10 t03 Playin' In The Band.flac
0d67061fadad9d9cd8e072b0b56a7526 *gd73-11-10 t04 Uncle John's Band.flac
f6c67899a611433e24be5023603ea179 *gd73-11-10 t05 Morning Dew.flac
81f3d497da19277b53355be52cb9da8b *gd73-11-10 t06 Uncle John's Band Reprise.flac
43b7b8c403e438424d405ff7cd6a8c8d *gd73-11-10 t07 Playin' In The Band Reprise.flac
d0613275ffda6776d4fa0c54b320f2fc *gd73-11-10 t08 Big River.flac
ffp
gd73-11-10 t01 Weather Report Suite.flac:eaec6b88abb44a18e895a35f46c932d1
gd73-11-10 t02 F'n Around.flac:ce73c24677c0e6ce348a245b96887bab
gd73-11-10 t03 Playin' In The Band.flac:64bda63fffdbed317bc015e4b73d0a76
gd73-11-10 t04 Uncle John's Band.flac:f03ec0f0227e280d45c098d11b535056
gd73-11-10 t05 Morning Dew.flac:0eba2ea954327c141d689a76e79fd069
gd73-11-10 t06 Uncle John's Band Reprise.flac:d45d698deae323ff524f01fa9252591d
gd73-11-10 t07 Playin' In The Band Reprise.flac:d62d3f374b6f6fc0b47422957edd7bcc
gd73-11-10 t08 Big River.flac:1fde6edc6f68a6f3825b3c35bb5503f5

Comments
Add Comment
Other Sources (comments)
MSR> reel > PCM > DAT > CD;... (8)
Date User Comment