Browse Collections Artists Sources   Search Dates

Add Show    List Management    Help


Grateful Dead 08/18/89
The Greek Theatre - University of California, Berkeley, CA
Comments Add Comment    Source Collectors    Add to Collection    Add to Want List    History
Source # 140716 Other Sources
Entered by Matt Vernon
Checksums ffp , flac-md5
Disc Counts 0 / 0
Media Size
Date Circulated
Date Added
01/18/2018
01/18/2018
Source Summary flac24; Set 2 Recording Info: Master Soundboard Ultramatrix DAT > Hi-Fi VHS; Transfer Info: Hi-Fi VHS (Sony SLV-M20HF)> Tascam DA-3000 (DSF 1-bit/5.8 MHz) > dBpoweramp 24/96 > Adobe Audition 3.0 > TLH flac2496; Fixed version in circulation 
  Archive
Source Information - Download Text | Download Zip
Grateful Dead
Greek Theatre
University of California
Berkeley, CA
Friday August 18, 1989

Recording Info:
Master Soundboard Ultramatrix DAT > Hi-Fi VHS

Transfer Info:
Hi-Fi VHS (Sony SLV-M20HF)> Tascam DA-3000 (DSF 1-bit/5.8 MHz) > dBpoweramp 24/96 > Adobe Audition 3.0 > TLH flac2496

Notes:
- Thanks to David Gans for the Hi-Fi VHS source
- Thanks to Charlie Miller for the transfer
- Rex Foundation Benefit
- FM Broadcast - KPFA

Mastered by Scott Clugston
January 17, 2018

Set 2:
t01 - Tuning
t02 - Iko Iko
t03 - Looks Like Rain
t04 - Terrapin Station ->
t05 - Drums ->
t06 - Space ->
t07 - Crazy Fingers ->
t08 - I Need A Miracle ->
t09 - Stella Blue ->
t10 - Throwing Stones ->
t11 - Turn On Your Lovelight
t12 - Encore Break
t13 - Black Muddy River
t14 - And We Bid You Good Night
t15 - Commentary/Interviews



    length     expanded size    cdr  WAVE problems  fmt   ratio  filename
     1:42.520      59051564 B   cxx   --   ---xx   flac  0.5692  gd89-08-18 s2 t01 Tuning.flac
     6:19.733     218726444 B   cxx   --   ---xx   flac  0.6731  gd89-08-18 s2 t02 Iko Iko.flac
    10:26.200     360691244 B   cxx   --   ---xx   flac  0.6360  gd89-08-18 s2 t03 Looks Like Rain.flac
    12:38.147     436692524 B   cxx   --   ---xx   flac  0.6589  gd89-08-18 s2 t04 Terrapin Station.flac
    12:13.907     422730284 B   cxx   --   ---xx   flac  0.6214  gd89-08-18 s2 t05 Drums.flac
     9:13.853     319019564 B   cxx   --   ---xx   flac  0.6028  gd89-08-18 s2 t06 Space.flac
     9:07.067     315110444 B   cxx   --   ---xx   flac  0.6515  gd89-08-18 s2 t07 Crazy Fingers.flac
     4:37.253     159697964 B   cxx   --   ---xx   flac  0.6832  gd89-08-18 s2 t08 I Need A Miracle.flac
     8:57.373     309527084 B   cxx   --   ---xx   flac  0.6404  gd89-08-18 s2 t09 Stella Blue.flac
     8:46.933     303513644 B   cxx   --   ---xx   flac  0.6773  gd89-08-18 s2 t10 Throwing Stones.flac
     6:41.707     231383084 B   cxx   --   ---xx   flac  0.6740  gd89-08-18 s2 t11 Turn On Your Lovelight.flac
     3:23.173     117027884 B   cxx   --   ---xx   flac  0.5976  gd89-08-18 s2 t12 Encore Break.flac
     7:02.827     243548204 B   cxx   --   ---xx   flac  0.6472  gd89-08-18 s2 t13 Black Muddy River.flac
     2:55.907     101322284 B   cxx   --   ---xx   flac  0.6370  gd89-08-18 s2 t14 And We Bid you Goodnight.flac
    13:28.000     465408044 B   cxx   --   ---xx   flac  0.6023  gd89-08-18 s2 t15 Commentary_Interviews.flac
   117:34.600    4063450260 B                            0.6397  (15 files)

No errors occured.



Show Checksums
ffp
gd89-08-18 s2 t01 Tuning.flac:0f855ba5f72a6d6022b2064fc46e4484
gd89-08-18 s2 t02 Iko Iko.flac:c81cb39c9d89339d7a1d4376b6558533
gd89-08-18 s2 t03 Looks Like Rain.flac:436090d2136a284172de389404d98436
gd89-08-18 s2 t04 Terrapin Station.flac:7cf277b392db32db53831035fa7c88b4
gd89-08-18 s2 t05 Drums.flac:d5c655e3945cde0b8545fcf2aae57850
gd89-08-18 s2 t06 Space.flac:73eb68f563d22654769dcde2db4ab68a
gd89-08-18 s2 t07 Crazy Fingers.flac:8fd6e882aabcb03d367c79936e349b0d
gd89-08-18 s2 t08 I Need A Miracle.flac:91010b0dc0351f908369aa777dc55424
gd89-08-18 s2 t09 Stella Blue.flac:5d6b201a4ac2df068f87f4920f25390b
gd89-08-18 s2 t10 Throwing Stones.flac:6c3dafcd2304880964ae7ee9899e16a6
gd89-08-18 s2 t11 Turn On Your Lovelight.flac:54280a14a7de3a20aa2f08308aae6769
gd89-08-18 s2 t12 Encore Break.flac:521b8212d4461a52512af9721527073c
gd89-08-18 s2 t13 Black Muddy River.flac:3f94843e738dfac59aa56a64d6480ed0
gd89-08-18 s2 t14 And We Bid you Goodnight.flac:b773acec203ac3b13605e73a43555fbc
gd89-08-18 s2 t15 Commentary_Interviews.flac:8ec61521226e5f2c3660363f5799e12a
flac-md5
70ac952c1c1035272a7933339ace7d0b *gd89-08-18 s2 t01 Tuning.flac
02d92b37eafade7f054d7223ba1dd8bc *gd89-08-18 s2 t02 Iko Iko.flac
1a4b7f1c082eb775dd73123b07708b44 *gd89-08-18 s2 t03 Looks Like Rain.flac
5c7ee65b9b04198884c30dd09f9b4c3c *gd89-08-18 s2 t04 Terrapin Station.flac
ee51b3c27e003a1d9019806444a1e347 *gd89-08-18 s2 t05 Drums.flac
eddfb98490b9183032ad18ed9cb995bb *gd89-08-18 s2 t06 Space.flac
84965cd4a44df9d3bb061b19f738db47 *gd89-08-18 s2 t07 Crazy Fingers.flac
051e9550c59807b3b4d9246e91538334 *gd89-08-18 s2 t08 I Need A Miracle.flac
0c711f723fb582deb9c917e9585827bc *gd89-08-18 s2 t09 Stella Blue.flac
a4f561b941dd7ca07c19b67407b9438b *gd89-08-18 s2 t10 Throwing Stones.flac
739f6c35dfa29e41304ede399025f830 *gd89-08-18 s2 t11 Turn On Your Lovelight.flac
de87f06638f6a7751c3896542162a865 *gd89-08-18 s2 t12 Encore Break.flac
1e0109f0197beed6e7e258d689bbf0cf *gd89-08-18 s2 t13 Black Muddy River.flac
3f13cf01da8226d65fae36874f76a7a7 *gd89-08-18 s2 t14 And We Bid you Goodnight.flac
ef4564b64e386b5bb078ce9db5b49a5f *gd89-08-18 s2 t15 Commentary_Interviews.flac

Comments
Add Comment
Other Sources (comments)
Healy Matrix Digital SBD >... (4) Jay Ashley (Bertha)... (1) Seamless fix of (0) flac16; Recording... (0) flac16; AUD:... (0) flac16; LINEAGE: 2x... (0) flac16; RECORDED BY:... (0) flac16; Source: 2... (0) flac16; Source info:... (0) flac24 96khz Akg... (0) flac16 44.1khz ... (0) flac24; Set 2... (0) flac16; Recording... (0) flac16; Set 2... (0)
Date User Comment