Browse Collections Artists Sources   Search Dates

Add Show    List Management    Help


Grateful Dead 08/18/89
The Greek Theatre - University of California, Berkeley, CA
Comments Add Comment    Source Collectors    Add to Collection    Add to Want List    History
Source # 140718 Other Sources
Entered by Matt Vernon
Checksums ffp , flac-md5
Disc Counts 0 / 0
Media Size
Date Circulated
Date Added
01/18/2018
01/18/2018
Source Summary flac24; Set 2 Recording Info: Master Soundboard Ultramatrix DAT > Hi-Fi VHS; Transfer Info: Hi-Fi VHS (Sony SLV-M20HF)> Tascam DA-3000 (DSF 1-bit/5.8 MHz) > dBpoweramp 24/96 > Adobe Audition 3.0 > TLH flac2496 
  Archive
Source Information - Download Text | Download Zip
Grateful Dead
Greek Theatre
University of California
Berkeley, CA
Friday August 18, 1989

Recording Info:
Master Soundboard Ultramatrix DAT > Hi-Fi VHS

Transfer Info:
Hi-Fi VHS (Sony SLV-M20HF)> Tascam DA-3000 (DSF 1-bit/5.8 MHz) > dBpoweramp 24/96 > Adobe Audition 3.0 > TLH flac2496

Notes:
- Thanks to David Gans for the Hi-Fi VHS source
- Thanks to Charlie Miller for the transfer
- Rex Foundation Benefit
- Channels corrected

Mastered by Scott Clugston
January 18, 2018

Set 2:
t01 - Tuning
t02 - Iko Iko
t03 - Looks Like Rain
t04 - Terrapin Station ->
t05 - Drums ->
t06 - Space ->
t07 - Crazy Fingers ->
t08 - I Need A Miracle ->
t09 - Stella Blue ->
t10 - Throwing Stones ->
t11 - Turn On Your Lovelight
t12 - Encore Break
t13 - Black Muddy River
t14 - And We Bid You Good Night
t15 - Commentary/Interviews



    length     expanded size    cdr  WAVE problems  fmt   ratio  filename
     1:38.973      57008684 B   cxx   --   ---xx   flac  0.5690  gd89-08-18 s2 t01 Tuning.flac
     6:32.427     226037804 B   cxx   --   ---xx   flac  0.6700  gd89-08-18 s2 t02 Iko Iko.flac
    10:14.907     354186284 B   cxx   --   ---xx   flac  0.6371  gd89-08-18 s2 t03 Looks Like Rain.flac
    12:40.000     437760044 B   cxx   --   ---xx   flac  0.6586  gd89-08-18 s2 t04 Terrapin Station.flac
    11:43.373     405143084 B   cxx   --   ---xx   flac  0.6221  gd89-08-18 s2 t05 Drums.flac
     9:40.613     334433324 B   cxx   --   ---xx   flac  0.6031  gd89-08-18 s2 t06 Space.flac
     9:11.133     317452844 B   cxx   --   ---xx   flac  0.6510  gd89-08-18 s2 t07 Crazy Fingers.flac
     4:52.027     168207404 B   cxx   --   ---xx   flac  0.6817  gd89-08-18 s2 t08 I Need A Miracle.flac
     8:43.587     301585964 B   cxx   --   ---xx   flac  0.6401  gd89-08-18 s2 t09 Stella Blue.flac
     8:46.200     303091244 B   cxx   --   ---xx   flac  0.6772  gd89-08-18 s2 t10 Throwing Stones.flac
     6:38.853     229739564 B   cxx   --   ---xx   flac  0.6743  gd89-08-18 s2 t11 Turn On Your Lovelight.flac
     3:27.333     119424044 B   cxx   --   ---xx   flac  0.5979  gd89-08-18 s2 t12 Encore Break.flac
     7:04.147     244308524 B   cxx   --   ---xx   flac  0.6471  gd89-08-18 s2 t13 Black Muddy River.flac
     2:53.293      99817004 B   cxx   --   ---xx   flac  0.6376  gd89-08-18 s2 t14 And We Bid You Goodnight.flac
    13:30.570     466888142 B   cxx   --   ---xx   flac  0.6035  gd89-08-18 s2 t15 Commentary_Interviews.flac
   117:37.436    4065083958 B                            0.6399  (15 files)

No errors occured.


Show Checksums
ffp
gd89-08-18 s2 t01 Tuning.flac:dedbcc8b066bb15741e0691efa9571bc
gd89-08-18 s2 t02 Iko Iko.flac:925ace70e8e9b568bf6c3a82bdd7856f
gd89-08-18 s2 t03 Looks Like Rain.flac:82d3fa98c71d6aa09672243cae0423a4
gd89-08-18 s2 t04 Terrapin Station.flac:3cea7b89d96c2f5b7bc0ec72a0ae813a
gd89-08-18 s2 t05 Drums.flac:d98ec198f3be59a4da0bc908eac7443d
gd89-08-18 s2 t06 Space.flac:ef2c5af342066c54ba523142f8ccd2b7
gd89-08-18 s2 t07 Crazy Fingers.flac:65a4d4ddeb3b1a467e11f6524459224e
gd89-08-18 s2 t08 I Need A Miracle.flac:1f191ff37123d9e239beae0ee042f745
gd89-08-18 s2 t09 Stella Blue.flac:62865d14abb8d6c9ecd1a87f84588cb2
gd89-08-18 s2 t10 Throwing Stones.flac:690996382f67fbe705d193c2788bd516
gd89-08-18 s2 t11 Turn On Your Lovelight.flac:de0d5207a5ea494dde5850045c20e3a9
gd89-08-18 s2 t12 Encore Break.flac:319048b80a8cebc9117d0d3d92efa43d
gd89-08-18 s2 t13 Black Muddy River.flac:608f91caae357110c445479a356eb821
gd89-08-18 s2 t14 And We Bid You Goodnight.flac:4e409d64f5c06cb079f0bb42c09989f9
gd89-08-18 s2 t15 Commentary_Interviews.flac:8801ac52e1c2784117418f2727ccd43d
flac-md5
ef4d06104b0b2f4497544712474debcc *gd89-08-18 s2 t01 Tuning.flac
a1fb12f45fb344b542fe25f7a970e16c *gd89-08-18 s2 t02 Iko Iko.flac
12b0abf56a3d48114dd3969f6a3148a0 *gd89-08-18 s2 t03 Looks Like Rain.flac
f2acf36204b65fd17a29a51ce7cf36e6 *gd89-08-18 s2 t04 Terrapin Station.flac
a3d3660dd271abb96b0bfec753510ecd *gd89-08-18 s2 t05 Drums.flac
efc961a30b8f4b206e8cdbdfc718694e *gd89-08-18 s2 t06 Space.flac
32e24581d1331621ca7a356b211aead5 *gd89-08-18 s2 t07 Crazy Fingers.flac
bf7c1431db0dc1b0c4df9d97328a5c72 *gd89-08-18 s2 t08 I Need A Miracle.flac
657473a261aac540170ff5f0538e372a *gd89-08-18 s2 t09 Stella Blue.flac
02fa44e56cc78e76bc0928bd4e37742b *gd89-08-18 s2 t10 Throwing Stones.flac
2b56cae2fe00c3df4e31f987a84637c8 *gd89-08-18 s2 t11 Turn On Your Lovelight.flac
6fe1f24674873d64e4f559f2e7f5fa84 *gd89-08-18 s2 t12 Encore Break.flac
44e5768e6f3f56fb8a4010549d5793c1 *gd89-08-18 s2 t13 Black Muddy River.flac
fc5c7296be9ea2bf4207ef631ba0ea62 *gd89-08-18 s2 t14 And We Bid You Goodnight.flac
872632f8c2d7e11a1e2698a525cfb0a8 *gd89-08-18 s2 t15 Commentary_Interviews.flac

Comments
Add Comment
Other Sources (comments)
Healy Matrix Digital SBD >... (4) Jay Ashley (Bertha)... (1) Seamless fix of (0) flac16; Recording... (0) flac16; AUD:... (0) flac16; LINEAGE: 2x... (0) flac16; RECORDED BY:... (0) flac16; Source: 2... (0) flac16; Source info:... (0) flac24 96khz Akg... (0) flac16 44.1khz ... (0) flac24; Set 2... (0) flac16; Recording... (0) flac16; Set 2... (0)
Date User Comment