Browse Collections Artists Sources   Search Dates

Add Show    List Management    Help


Grateful Dead 08/18/89
The Greek Theatre - University of California, Berkeley, CA
Comments Add Comment    Source Collectors    Add to Collection    Add to Want List    History
Source # 140721 Other Sources
Entered by Matt Vernon
Checksums ffp , flac-md5
Disc Counts 0 / 0
Media Size
Date Circulated
Date Added
01/18/2018
01/18/2018
Source Summary flac16; Recording Info: Master Soundboard Ultramatrix DAT > PCM; Transfer Info: PCM (Sony SLV-M20HF)> Sony PCM 601ESD > Behringer Ultramatch Pro > Tascam DA-3000 > Adobe Audition 3.0 > TLH flac16 
  Archive
Source Information - Download Text | Download Zip
Grateful Dead
Greek Theatre
University of California
Berkeley, CA
Friday August 18, 1989

Recording Info:
Master Soundboard Ultramatrix DAT > PCM

Transfer Info:
PCM (Sony SLV-M20HF)> Sony PCM 601ESD > Behringer Ultramatch Pro > Tascam DA-3000 > Adobe Audition 3.0 > TLH flac16

Notes:
- Thanks to David Gans for the PCM source
- Thanks to Charlie Miller for the transfer
- Rex Foundation Benefit

Mastered by Scott Clugston
January 18, 2018


Set 1:
t01 - Tuning
t02 - Cold Rain & Snow
t03 - New Minglewood Blues
t04 - Row Jimmy
t05 - When I Paint My Masterpiece
t06 - Built To Last
t07 - Victim Or The Crime >
t08 - Bird Song
t09 - Promised Land

Set 2:
t10 - Tuning
t11 - Iko Iko
t12 - Looks Like Rain
t13 - Terrapin Station ->
t14 - Drums ->
t15 - Space ->
t16 - Crazy Fingers ->
t17 - I Need A Miracle ->
t18 - Stella Blue ->
t19 - Throwing Stones ->
t20 - Turn On Your Lovelight
t21 - Encore Break
t22 - Black Muddy River
t23 - And We Bid You Good Night


    length     expanded size    cdr  WAVE problems  fmt   ratio  filename
     4:01.10       42535964 B   ---   --   ---xx   flac  0.4197  gd89-08-18 t01 Tuning.flac
     8:17.39       87762572 B   ---   --   ---xx   flac  0.5363  gd89-08-18 t02 Cold Rain & Snow.flac
    10:03.02      106373948 B   ---   --   ---xx   flac  0.5579  gd89-08-18 t03 New Minglewood Blues.flac
    11:41.17      123696428 B   ---   --   ---xx   flac  0.5184  gd89-08-18 t04 Row Jimmy.flac
     7:11.39       76120172 B   ---   --   ---xx   flac  0.5485  gd89-08-18 t05 When I Paint My Masterpiece.flac
     6:44.69       71427932 B   ---   --   ---xx   flac  0.5350  gd89-08-18 t06 Built To Last.flac
     6:08.13       64945820 B   ---   --   ---xx   flac  0.5731  gd89-08-18 t07 Victim Or The Crime.flac
    11:51.00      125420444 B   ---   --   ---xx   flac  0.5771  gd89-08-18 t08 Bird Song.flac
     4:38.44       49142732 B   ---   --   ---xx   flac  0.6053  gd89-08-18 t09 Promised Land.flac
     1:39.05       17475404 B   ---   --   ---xx   flac  0.3777  gd89-08-18 t10 Tuning.flac
     6:25.39       68005772 B   ---   --   ---xx   flac  0.5905  gd89-08-18 t11 Iko Iko.flac
    10:23.40      109991324 B   ---   --   ---xx   flac  0.5078  gd89-08-18 t12 Looks Like Rain.flac
    12:40.58      134200460 B   ---   --   ---xx   flac  0.5520  gd89-08-18 t13 Terrapin Station.flac
    12:11.72      129117788 B   ---   --   ---xx   flac  0.4611  gd89-08-18 t14 Drums.flac
     9:13.31       97622156 B   ---   --   ---xx   flac  0.4077  gd89-08-18 t15 Space.flac
     9:07.19       96535532 B   ---   --   ---xx   flac  0.5356  gd89-08-18 t16 Crazy Fingers.flac
     4:37.29       48931052 B   ---   --   ---xx   flac  0.6029  gd89-08-18 t17 I Need A Miracle.flac
     8:57.56       94858556 B   ---   --   ---xx   flac  0.5086  gd89-08-18 t18 Stella Blue.flac
     8:46.53       92911100 B   ---   --   ---xx   flac  0.5880  gd89-08-18 t19 Throwing Stones.flac
     6:38.38       70296620 B   ---   --   ---xx   flac  0.5849  gd89-08-18 t20 Turn On Your Lovelight.flac
     3:28.46       36799436 B   ---   --   ---xx   flac  0.4151  gd89-08-18 t21 Encore Break.flac
     6:59.40       74005724 B   ---   --   ---xx   flac  0.5244  gd89-08-18 t22 Black Muddy River.flac
     2:52.00       30340844 B   ---   --   ---xx   flac  0.5153  gd89-08-18 t23 And We Bid You Goodnight.flac
   174:39.09     1848517780 B                            0.5294  (23 files)

No errors occured.


Show Checksums
ffp
gd89-08-18 t01 Tuning.flac:bee57e46920e06f7ace24bae6a8b5dc2
gd89-08-18 t02 Cold Rain & Snow.flac:74138ea0801dec0ef2d18c85b6f8bd24
gd89-08-18 t03 New Minglewood Blues.flac:8ad783a353d8345791f5c3f4dbf1968b
gd89-08-18 t04 Row Jimmy.flac:cae8438e0dd8a470e13b3118c98f114c
gd89-08-18 t05 When I Paint My Masterpiece.flac:beded7805bc4482dc8010b7ea3139169
gd89-08-18 t06 Built To Last.flac:8c474c9ec9d71c62d5c3a62ff1fbcc85
gd89-08-18 t07 Victim Or The Crime.flac:d76640f78b31a298c94cf4a25387c6ce
gd89-08-18 t08 Bird Song.flac:b892bc6df55ccbb502a0ce97f686bb13
gd89-08-18 t09 Promised Land.flac:567a384bc59b069e86e27b91b96b512b
gd89-08-18 t10 Tuning.flac:6e0ac8b86555b9ab352fe9aa23bcdbd4
gd89-08-18 t11 Iko Iko.flac:15826f02ccf26ae0bd9df18dadaf972a
gd89-08-18 t12 Looks Like Rain.flac:7f9fc4066d7833d26688ffa51953cbbc
gd89-08-18 t13 Terrapin Station.flac:8a3b1243208eb6b185af0c4383589dfa
gd89-08-18 t14 Drums.flac:2ad518e49cce1973331debe0482ebecb
gd89-08-18 t15 Space.flac:2d37557db5af4432f3d7bf2b189da54b
gd89-08-18 t16 Crazy Fingers.flac:85f63b279f6a6093e1a4c76a1b9c1ee2
gd89-08-18 t17 I Need A Miracle.flac:78b4c2d3494f2a4328808f52d45d9347
gd89-08-18 t18 Stella Blue.flac:bc717ebf6497772ca5e8421ec9bbdebf
gd89-08-18 t19 Throwing Stones.flac:821e3bcf6f51011a6ca835d36ef29552
gd89-08-18 t20 Turn On Your Lovelight.flac:1c86558e949b0477efaf1c2049242ac6
gd89-08-18 t21 Encore Break.flac:c379979cf3061202872765fd226f3bc0
gd89-08-18 t22 Black Muddy River.flac:256b1a7d7f2d52f8645374704989d00f
gd89-08-18 t23 And We Bid You Goodnight.flac:1710b007ee71c8bea82f0b3e7031b1b5
flac-md5
c7df1bb638b83323e8c0ab07cea0c9d0 *gd89-08-18 t01 Tuning.flac
d56d607284568e3ec3170a7a3fddad1f *gd89-08-18 t02 Cold Rain & Snow.flac
7d5be6571adc989bfd1e4fde5e295f90 *gd89-08-18 t03 New Minglewood Blues.flac
d75762e34740a6fe1483acf7fdad8293 *gd89-08-18 t04 Row Jimmy.flac
97c41aba34d00c1e8f38fceac3818d16 *gd89-08-18 t05 When I Paint My Masterpiece.flac
c53773933ccc820e2cea7d978602dccc *gd89-08-18 t06 Built To Last.flac
fe7af985c8e3519b393fb6f412adf82d *gd89-08-18 t07 Victim Or The Crime.flac
b48c8191f53ba97709d3f6c346624021 *gd89-08-18 t08 Bird Song.flac
0d13dba5d67a50cebcc68532f8132662 *gd89-08-18 t09 Promised Land.flac
b54d720bb4b7a7fd60ca89400078360e *gd89-08-18 t10 Tuning.flac
3d2db667fd77188bf2fb89c48d53321f *gd89-08-18 t11 Iko Iko.flac
219856b83ee191b56d3c4787ccdcc027 *gd89-08-18 t12 Looks Like Rain.flac
183571282a4a2730b202e7a284a9378b *gd89-08-18 t13 Terrapin Station.flac
4ca1e2d430bda6b396be3d5a78b46945 *gd89-08-18 t14 Drums.flac
096ccd1cdbf42f53ded9ba4b19de139c *gd89-08-18 t15 Space.flac
d61d3b15e4da3daeb3efb298f5773353 *gd89-08-18 t16 Crazy Fingers.flac
bc23cb1838554b23816248ccc0a15d2f *gd89-08-18 t17 I Need A Miracle.flac
b209e7a080c50567ecd9a08dccbb6722 *gd89-08-18 t18 Stella Blue.flac
e0f2216b385bba3aabac3ff0f7810aad *gd89-08-18 t19 Throwing Stones.flac
77730da4732d9a7400c2a135e91ab2ff *gd89-08-18 t20 Turn On Your Lovelight.flac
4acfa3b30fdc0e8204d2aea4fe7f19d3 *gd89-08-18 t21 Encore Break.flac
8ed35d6bf9b96d10b27fa1c80787f87c *gd89-08-18 t22 Black Muddy River.flac
5a91596faadf871b18d625c1ef5f022a *gd89-08-18 t23 And We Bid You Goodnight.flac

Comments
Add Comment
Other Sources (comments)
Healy Matrix Digital SBD >... (4) Jay Ashley (Bertha)... (1) Seamless fix of (0) flac16; Recording... (0) flac16; AUD:... (0) flac16; LINEAGE: 2x... (0) flac16; RECORDED BY:... (0) flac16; Source: 2... (0) flac16; Source info:... (0) flac24 96khz Akg... (0) flac16 44.1khz ... (0) flac24; Set 2... (0) flac24; Set 2... (0) flac16; Set 2... (0)
Date User Comment