Browse Collections Artists Sources   Search Dates

Add Show    List Management    Help


Grateful Dead 02/05/89
Henry J Kaiser Convention Center, Oakland, CA
Comments Add Comment    Source Collectors    Add to Collection    Add to Want List    History
Source # 140728 Other Sources
Entered by Matt Vernon
Checksums flac-md5 , ffp
Disc Counts 0 / 0
Media Size
Date Circulated
Date Added
01/19/2018
01/19/2018
Source Summary flac16; Set 2 Recording Info: Master Audience 4 Track Hi-Fi VHS; AKG C42 mics located mid-side of soundboard > 1st gen Hi-Fi VHS; Transfer Info: 1st Gen Hi-Fi VHS (Sony SLV-M20HF) > Tascam DA-3000 (DSF 1-bit/5.8 MHz)> dBpoweramp 24/96 > Adobe Audition 3.0 > TLH flac2496; 24 bit > 16 bit via dBpoweramp 
  Archive
Source Information - Download Text | Download Zip
Grateful Dead
Henry J. Kaiser Convention Center
Oakland, CA
Sunday February 5, 1989

This is a 16/44 fileset. 24 bit > 16 bit via dBpoweramp

Recording Info:
Master Audience 4 Track Hi-Fi VHS; AKG C42 mics located mid-side of soundboard > 1st gen Hi-Fi VHS (dubbed by David Gans, January 1991)

Transfer Info:
1st Gen Hi-Fi VHS (Sony SLV-M20HF) > Tascam DA-3000 (DSF 1-bit/5.8 MHz)> dBpoweramp 24/96 > Adobe Audition 3.0 > TLH flac2496

Notes:
- Thanks to David Gans for the 1st gen Hi-Fi VHS source
- Thanks to Charlie Miller for the transfer
- This is the ambient mic source used for the ultramatrix
- Noodle into I Will Take You Home included in "I Will Take You Home"

Mastered by Scott Clugston
January 18, 2018

Set 2:
01 - Cold Rain And Snow >
02 - Man Smart (Woman Smarter)
03 - Standing On The Moon
04 - Playing In The Band >
05 - Drums >
06 - Space >
07 - I Will Take You Home >
08 - He's Gone >
09 - I Need A Miracle >
10 - Morning Dew
11 - Encore Break
12 - Johnny B. Goode



    length     expanded size    cdr  WAVE problems  fmt   ratio  filename
     6:01.64       63830972 B   ---   --   ---xx   flac  0.5024  gd89-02-05 s2 t01 Cold Rain & Snow.flac
     8:00.17       84712028 B   ---   --   ---xx   flac  0.5282  gd89-02-05 s2 t02 Man Smart (Woman Smarter).flac
     6:08.16       64952876 B   ---   --   ---xx   flac  0.4881  gd89-02-05 s2 t03 Standing On The Moon.flac
    13:11.65      139685324 B   ---   --   ---xx   flac  0.5124  gd89-02-05 s2 t04 Playin' In The Band.flac
     8:34.16       90707276 B   ---   --   ---xx   flac  0.4840  gd89-02-05 s2 t05 Drums.flac
     7:27.37       78937868 B   ---   --   ---xx   flac  0.4174  gd89-02-05 s2 t06 Space.flac
     4:20.57       45998108 B   ---   --   ---xx   flac  0.4110  gd89-02-05 s2 t07 I Will Take You Home.flac
    10:19.42      109290428 B   ---   --   ---xx   flac  0.4909  gd89-02-05 s2 t08 He's Gone.flac
     5:21.26       56685596 B   ---   --   ---xx   flac  0.5422  gd89-02-05 s2 t09 I Need A Miracle.flac
    11:48.67      125048828 B   ---   --   ---xx   flac  0.5049  gd89-02-05 s2 t10 Morning Dew.flac
     2:21.12       24900668 B   ---   --   ---xx   flac  0.4424  gd89-02-05 s2 t11 Encore Break.flac
     3:58.31       42056156 B   ---   --   ---xx   flac  0.5499  gd89-02-05 s2 t12 Johnny B. Goode.flac
    87:34.00      926806128 B                            0.4936  (12 files)

No errors occured.


Show Checksums
flac-md5
817a461223a36a0ee7a35758add9f04e *gd89-02-05 s2 t01 Cold Rain & Snow.flac
b980b44fa8bff5fcc8aa65a82a573fb3 *gd89-02-05 s2 t02 Man Smart (Woman Smarter).flac
e9c7323837342da2ca1570e07e40fed9 *gd89-02-05 s2 t03 Standing On The Moon.flac
b896255789256085fedea0bc5f993ab4 *gd89-02-05 s2 t04 Playin' In The Band.flac
0953d1b4fd169f99e10d44a768e86a5f *gd89-02-05 s2 t05 Drums.flac
88b9932bb21a2c7b1ad0759c236d0f68 *gd89-02-05 s2 t06 Space.flac
dd71c7fa4da6e74573a65455afb9a6d7 *gd89-02-05 s2 t07 I Will Take You Home.flac
c75bb0a8f3a31327f453c4c2c39e2bfd *gd89-02-05 s2 t08 He's Gone.flac
999aaee925213035921bbbbce2e91450 *gd89-02-05 s2 t09 I Need A Miracle.flac
9dc47addb83952cec6b9efac5e454610 *gd89-02-05 s2 t10 Morning Dew.flac
a0a8e4b2cc94c1f4ccc69cc30a85c412 *gd89-02-05 s2 t11 Encore Break.flac
69235958fd48931c3dd3fa6614ddda52 *gd89-02-05 s2 t12 Johnny B. Goode.flac
ffp
gd89-02-05 s2 t01 Cold Rain & Snow.flac:ebda4f4a6177eeef6570608ff9260b98
gd89-02-05 s2 t02 Man Smart (Woman Smarter).flac:a5285a4fb7a8f400bc632f95cc87a0d8
gd89-02-05 s2 t03 Standing On The Moon.flac:3aa17a44eac94b95acb046f2fa6d8762
gd89-02-05 s2 t04 Playin' In The Band.flac:f38d2daa640a2b3d0351f197c0f6a39a
gd89-02-05 s2 t05 Drums.flac:0d7d71f65260f741dc2a3208723c8d68
gd89-02-05 s2 t06 Space.flac:05e602334f06894cba1a30c8522aa75a
gd89-02-05 s2 t07 I Will Take You Home.flac:8c177992cb7406547fb7ac5a284c6f5e
gd89-02-05 s2 t08 He's Gone.flac:f64e90a06042d0388a684792d037223a
gd89-02-05 s2 t09 I Need A Miracle.flac:fbb70a2fb970dd1a3d4fe18572b202d3
gd89-02-05 s2 t10 Morning Dew.flac:82f794b21e17e659bffaab3ee7889857
gd89-02-05 s2 t11 Encore Break.flac:460ce0f27721c7a3a001de6c9f77a464
gd89-02-05 s2 t12 Johnny B. Goode.flac:62355831d446f8aae78cb258a446ee62

Comments
Add Comment
Other Sources (comments)
Mark Horvath FOB Senn.... (2) Source: Ultramatrix... (0) flac16; Recording... (0) flac16; Recording... (0) flac16; Recording... (0) flac24; Recording... (0) flac16; Source:... (0) flac16; AT835B's- AT... (0) flac16; Ted Mattes... (0) flac24; Set 2... (0) flac16; Recording... (0) flac16; Set 2... (0) flac24; Set 2... (0) flac16; Recording... (0)
Date User Comment