Browse Collections Artists Sources   Search Dates

Add Show    List Management    Help


Grateful Dead 01/28/87
San Francisco Civic Auditorium, San Francisco, CA
Comments Add Comment    Source Collectors    Add to Collection    Add to Want List    History
Source # 140787 Other Sources
Entered by Matt Vernon
Checksums ffp , flac-md5
Disc Counts 0 / 0
Media Size Compressed: 1.02 GB (1099976704 bytes)
Date Circulated
Date Added
01/20/2018
01/20/2018
Source Summary flac16; Recording Info: UltraMatrix SBD > Cassette Master (TDK MA-R90); Transfer Info: Cassette Master (Nakamichi CR-7A) > Tascam DA-3000 (DSF 1-bit/5.8 MHz) > KORG AudioGate 4 > Samplitude Pro X3 Suite > FLAC/24; All Transfers and Mastering By Charlie Miller 
  Archive
Source Information - Download Text | Download Zip
Grateful Dead - January 28, 1987
San Francisco Civic Auditorium - San Francisco, CA

Recording Info:
UltraMatrix SBD > Cassette Master (TDK MA-R90)

Transfer Info:
Cassette Master (Nakamichi CR-7A) > Tascam DA-3000 (DSF 1-bit/5.8 MHz) >
KORG AudioGate 4 > Samplitude Pro X3 Suite > FLAC/24
(1 Disc FLAC)

All Transfers and Mastering By Charlie Miller
[email protected]
January 15, 2018

Notes:
-- Two sets of masters were used to make this show complete
-- This file set is 16 bit

Set 1:
01 - Tuning
02 - Shakedown Street
03 - Get Back
04 - Peggy-O
05 - Walkin' Blues
06 - It Must Have Been The Roses
07 - It's All Over Now
08 - Row Jimmy
09 - My Brother Esau
10 - Bird Song
11 - Jack Straw

Set 2:
12 - Tuning
13 - When Push Comes To Shove >
14 - Samson And Delilah
15 - Black Muddy River >
16 - He's Gone >
17 - Spoonful >
18 - Drums >
19 - Jam >
20 - Eyes Of The World >
21 - Black Peter >
22 - Around And Around >
23 - Sugar Magnolia

Encore:
24 - Encore Break
25 - U.S. Blues


SHNTOOL OUTPUT:
    length     expanded size    cdr  WAVE problems  fmt   ratio  filename
     0:39.65        7032524 B   ---   --   ---xx   flac  0.5507  01 Tuning.flac
    13:19.42      141042428 B   ---   --   ---xx   flac  0.6244  02 Shakedown Street.flac
     5:55.01       62624396 B   ---   --   ---xx   flac  0.6576  03 Get Back.flac
     5:59.43       63428780 B   ---   --   ---xx   flac  0.6203  04 Peggy-O.flac
     6:13.65       65950124 B   ---   --   ---xx   flac  0.6141  05 Walkin' Blues.flac
     7:48.58       82691660 B   ---   --   ---xx   flac  0.5889  06 It Must Have Been The Roses.flac
     6:48.57       72105308 B   ---   --   ---xx   flac  0.6388  07 It's All Over Now.flac
    12:22.00      130888844 B   ---   --   ---xx   flac  0.6012  08 Row Jimmy.flac
     4:57.28       52456700 B   ---   --   ---xx   flac  0.6289  09 My Brother Esau.flac
    11:15.70      119234684 B   ---   --   ---xx   flac  0.6312  10 Bird Song.flac
     5:46.50       61152044 B   ---   --   ---xx   flac  0.6369  11 Jack Straw.flac
     0:55.53        9826700 B   ---   --   ---xx   flac  0.4680  12 Tuning.flac
     4:25.13       46776620 B   ---   --   ---xx   flac  0.6615  13 When Push Comes To Shove.flac
     7:11.60       76169564 B   ---   --   ---xx   flac  0.6615  14 Samson And Delilah.flac
     6:01.50       63798044 B   ---   --   ---xx   flac  0.6289  15 Black Muddy River.flac
    10:50.00      114660044 B   ---   --   ---xx   flac  0.6026  16 He's Gone.flac
     6:47.43       71895980 B   ---   --   ---xx   flac  0.6166  17 Soonful.flac
     9:37.59      101921612 B   ---   --   ---xx   flac  0.6292  18 Drums.flac
     2:01.19       21389132 B   ---   --   ---xx   flac  0.5831  19 Jam.flac
     6:55.39       73297772 B   ---   --   ---xx   flac  0.6459  20 Eyes Of The World.flac
    10:03.07      106385708 B   ---   --   ---xx   flac  0.5868  21 Black Peter.flac
     4:34.27       48397148 B   ---   --   ---xx   flac  0.6239  22 Around And Around.flac
     9:03.28       95851100 B   ---   --   ---xx   flac  0.6311  23 Sugar Magnolia.flac
     2:21.61       25015916 B   ---   --   ---xx   flac  0.5312  24 Encore Break.flac
     5:28.55       57988604 B   ---   --   ---xx   flac  0.6291  25 US Blues.flac
   167:25.18     1771981436 B                            0.6207  (25 files)




Show Checksums
ffp
01 Tuning.flac:427ebe9b2466d5d580043fafd0f90457
02 Shakedown Street.flac:b5c9c48d9d2c35a61e08bbc9f65c8fdf
03 Get Back.flac:729e03cc59b1824ae1bd55e20515ce7b
04 Peggy-O.flac:dbefca6c0a5516759134fd021642fa12
05 Walkin' Blues.flac:ac67c94c8c7b9ea2e014361bbcf5aced
06 It Must Have Been The Roses.flac:56de28a5172f9f3e57cab8f28dd5e347
07 It's All Over Now.flac:e85e991eef41e18fb5511ae90d11b786
08 Row Jimmy.flac:54b33184d89bfa08f1d32d9ab8ba214f
09 My Brother Esau.flac:9930e18865a21410c1d2a8bbdf507127
10 Bird Song.flac:382bc4199f4c3de951325ceb3bba7dfa
11 Jack Straw.flac:89b176e385763e69fdcd74c4bb8290a1
12 Tuning.flac:2fc383396464e708fb970c3463724111
13 When Push Comes To Shove.flac:164d20c5ac7542a415eb3eecc0b80523
14 Samson And Delilah.flac:20fa2279e786243d171a92995e044279
15 Black Muddy River.flac:c13778c911c0f15057a9afe369be5e3e
16 He's Gone.flac:6ec68084683520f31104932e4c853175
17 Soonful.flac:90048393cba5148b2f74cf8cdadb6143
18 Drums.flac:98b54de7bbf3afe5805af490a2f59d88
19 Jam.flac:1e2ae8e0a4a366f0c74a335ca3a16a65
20 Eyes Of The World.flac:a325a22dd6d7a863145867d351541012
21 Black Peter.flac:eeac3ac4f0d9fd1a3d242d8d9bc213c2
22 Around And Around.flac:ba9c320c845a52548b45c5dc31d1be0f
23 Sugar Magnolia.flac:29ec942321c70313953cfd6e7f01bfdb
24 Encore Break.flac:00dd30442050d15554d12dafec72c4cf
25 US Blues.flac:398011bd593724119dcb2efd9c3efd61
flac-md5
f2e80bfc5406f53a2b36c21f9ed61b21 *01 Tuning.flac
c276171b95fbd9abb0216e1b7f22e061 *02 Shakedown Street.flac
5d9916a781ba96bbe0867a48c928b520 *03 Get Back.flac
3c9dbc8d5b26b113fc00f3a992b53087 *04 Peggy-O.flac
d6cf066361912f34417f0fb9f873727c *05 Walkin' Blues.flac
bbe03c3132270fd5b865cfda31e49cc8 *06 It Must Have Been The Roses.flac
d9d87fd9215a76bb9e265ac71179df43 *07 It's All Over Now.flac
6ebb2d19918cf905293d983e4d570f31 *08 Row Jimmy.flac
9bb3c80ba432f43fbd3e1b3a983fbbf9 *09 My Brother Esau.flac
d8e91560caa120086433e12166a2cc86 *10 Bird Song.flac
b197b7cbecae8d74c25c01bf99345193 *11 Jack Straw.flac
8cd4bbaaea2caa822c611965cc5b8cbd *12 Tuning.flac
fcec93d5aca4a94fe4a71efdb0185a2d *13 When Push Comes To Shove.flac
40dc633a2d63a87cc495f585b5bc34da *14 Samson And Delilah.flac
1647eb7b30381751d3774be01b7c33de *15 Black Muddy River.flac
731b66cf16736b8f5250046f9de40a07 *16 He's Gone.flac
b539f78ec97730db39c73eb73518d50e *17 Soonful.flac
9011bea39fef3269664c8d4827dbcc80 *18 Drums.flac
e85fd08601993b31d96008f4981cbcef *19 Jam.flac
33753b005aacab829cd98bef03856925 *20 Eyes Of The World.flac
55d63f9323ea454b22c4394d3f196dda *21 Black Peter.flac
d5e7aec397ffb828ec070067ed7b425c *22 Around And Around.flac
20ce214a9de188a646f73ffdeb90c2a7 *23 Sugar Magnolia.flac
989a86b6df53ae3111c96af13224e016 *24 Encore Break.flac
294f709fc30ea177dd7eb027deb4249e *25 US Blues.flac

Comments
Add Comment
Other Sources (comments)
Source: SBDcm(Healy... (7) flac16; Source:... (0) flac16; Recording... (0) flac16; OTS AUD: 2x... (0) flac24; OTS AUD: 2x... (0) flac16; Matrix 2... (0) DTS-Audio-CD 5.1... (0) flac16/48kHz; 5.1... (0) flac24; lineage:... (0) flac24; Recording... (2)
Date User Comment