Browse Collections Artists Sources   Search Dates

Add Show    List Management    Help


Grateful Dead 01/30/87
San Francisco Civic Auditorium, San Francisco, CA
Comments Add Comment    Source Collectors    Add to Collection    Add to Want List    History
Source # 140791 Other Sources
Entered by Matt Vernon
Checksums ffp , flac-md5
Disc Counts 0 / 0
Media Size Compressed: 979.59 MB (1027170304 bytes)
Date Circulated
Date Added
01/21/2018
01/21/2018
Source Summary flac16; Recording Info: UltraMatrix SBD > Cassette Master (TDK MA-R90); Transfer Info: Cassette Master (Nakamichi CR-7A) > Tascam DA-3000 (DSF 1-bit/5.8 MHz) > KORG AudioGate 4 > Samplitude Pro X3 Suite > FLAC/24; All Transfers and Mastering By Charlie Miller 
  Archive
Source Information - Download Text | Download Zip
Grateful Dead - January 30, 1987
San Francisco Civic Auditorium - San Francisco, CA

Recording Info:
UltraMatrix SBD > Cassette Master (TDK MA-R90)

Transfer Info:
Cassette Master (Nakamichi CR-7A) > Tascam DA-3000 (DSF 1-bit/5.8 MHz) >
KORG AudioGate 4 > Samplitude Pro X3 Suite > FLAC/24
(1 Disc FLAC)

All Transfers and Mastering By Charlie Miller
[email protected]
January 15, 2018

Notes:
-- Two sets of masters were used to make this show complete
-- This fileset is 16 bit

Set 1:
01 - Tuning
02 - Touch Of Grey
03 - New Minglewood Blues
04 - Candyman
05 - Me And My Uncle >
06 - Mexicali Blues
07 - When Push Comes To Shove
08 - Beat It On Down The Line >
09 - The Promised Land >
10 - China Cat Sunflower >
11 - I Know You Rider

Set 2:
12 - Tuning
13 - Iko Iko >
14 - Man Smart (Woman Smarter)
15 - Ship Of Fools
16 - Estimated Prophet >
17 - Truckin' >
18 - Drums >
19 - The Other One >
20 - Wharf Rat >
21 - Throwing Stones >
22 - Not Fade Away

Encore:
23 - Not Fade Away >
24 - Brokedown Palace


SHNTOOL OUTPUT:
    length     expanded size    cdr  WAVE problems  fmt   ratio  filename
     0:34.06        6011756 B   ---   --   ---xx   flac  0.5153  01 Tuning.flac
     6:23.50       67678844 B   ---   --   ---xx   flac  0.6614  02 Touch Of Grey.flac
     8:10.72       86605388 B   ---   --   ---xx   flac  0.6441  03 New Minglewood Blues.flac
     8:37.74       91372892 B   ---   --   ---xx   flac  0.6117  04 Candyman.flac
     2:45.74       29280092 B   ---   --   ---xx   flac  0.6675  05 Me And My Uncle.flac
     6:42.67       71070428 B   ---   --   ---xx   flac  0.6340  06 Mexicali Blues.flac
     6:38.35       70289564 B   ---   --   ---xx   flac  0.6228  07 When Push Comes To Shove.flac
     3:22.29       35701052 B   ---   --   ---xx   flac  0.6913  08 Beat It On Down The Line.flac
     3:57.09       41828012 B   ---   --   ---xx   flac  0.6682  09 Promised Land.flac
     4:55.49       52153292 B   ---   --   ---xx   flac  0.6602  10 China Cat Sunflower.flac
     5:42.67       60486428 B   ---   --   ---xx   flac  0.6688  11 I Know You Rider.flac
     1:53.10       19956764 B   ---   --   ---xx   flac  0.5093  12 Tuning.flac
     5:18.29       56163452 B   ---   --   ---xx   flac  0.6604  13 Iko Iko.flac
     6:51.52       72622748 B   ---   --   ---xx   flac  0.6384  14 Man Smart (Woman Smarter).flac
     9:11.39       97288172 B   ---   --   ---xx   flac  0.5977  15 Ship Of Fools.flac
    10:46.27      114017948 B   ---   --   ---xx   flac  0.6524  16 Estimated Prophet.flac
     8:55.25       94432844 B   ---   --   ---xx   flac  0.6496  17 Truckin'.flac
    10:26.52      110548748 B   ---   --   ---xx   flac  0.5524  18 Drums.flac
    10:13.35      108215564 B   ---   --   ---xx   flac  0.5752  19 The Other One.flac
     8:53.33       94098860 B   ---   --   ---xx   flac  0.6266  20 Wharf Rat.flac
     8:27.41       89531276 B   ---   --   ---xx   flac  0.6395  21 Throwing Stones.flac
     7:37.10       80638364 B   ---   --   ---xx   flac  0.6349  22 Not Fade Away.flac
     1:57.33       20716460 B   ---   --   ---xx   flac  0.6134  23 Not Fade Away.flac
     6:21.53       67333100 B   ---   --   ---xx   flac  0.6052  24 Brokedown Palace.flac
   154:45.71     1638042048 B                            0.6270  (24 files)




Show Checksums
ffp
01 Tuning.flac:258d3703946e8aa8d936ddceec130882
02 Touch Of Grey.flac:c11651d0a91c029106ef22ce0ca265c1
03 New Minglewood Blues.flac:92f6ae15fcaf8841552cf655f7bc10bc
04 Candyman.flac:613eb98438ac5a170860e2f3efae6985
05 Me And My Uncle.flac:b750bd4447eb520670c3d0e6e3475e05
06 Mexicali Blues.flac:6bb732a22a6ccbe5d8a5ea604514b9a7
07 When Push Comes To Shove.flac:472b7a36f501f5e033a240f2f28558aa
08 Beat It On Down The Line.flac:d0d6f73e6fd8dd24c2d96fcb50cd0136
09 Promised Land.flac:41fde71f7feb6cc5c57229c9342ca85a
10 China Cat Sunflower.flac:0f1f0d0aeb4cbc1a319770d545562299
11 I Know You Rider.flac:c170fb5f44556c7e98b6ff518eec505d
12 Tuning.flac:bb5b1e3374688c283fd2a71bcf794676
13 Iko Iko.flac:f555d14a5546db05290a048e520dd4f0
14 Man Smart (Woman Smarter).flac:9d0762d4ebc9a1a4897f26d7c8c5ff20
15 Ship Of Fools.flac:1d4781fa712a09e77ade685c6224d814
16 Estimated Prophet.flac:4919bc8d57634f687350bdb806cb4b80
17 Truckin'.flac:c64770905e674f207ef2831702c3cfd8
18 Drums.flac:8a9122ab5c9b48503e2e76416a5478b4
19 The Other One.flac:bcb58679cba3869e30ecdde2bb0f0129
20 Wharf Rat.flac:ab2e33f6e27d8194469cdc4a584c9bf1
21 Throwing Stones.flac:827ac3bb5d0df196ed429ac963705b7f
22 Not Fade Away.flac:cfbf40d6cf873b70137a8434b4ea7049
23 Not Fade Away.flac:dc51f9ac578b30b3134270dbd83a257f
24 Brokedown Palace.flac:097f6689510d9acdc5460a50f39386b7
flac-md5
995ddd457afaaebd8ad4be761e838162 *01 Tuning.flac
d0f5119cfb86b998f08dd9a653661fa1 *02 Touch Of Grey.flac
d43cfcbd7bde787c0301cda373b9304a *03 New Minglewood Blues.flac
0e09046e13a385f0f67eaf76ef087a81 *04 Candyman.flac
05632dcb4ed59741d8647f896382b702 *05 Me And My Uncle.flac
7cb87d2b2e44ddb8373d4ba2b35d8278 *06 Mexicali Blues.flac
215c0f9ad77f2e64caee7fcbd501e60c *07 When Push Comes To Shove.flac
918be0ecc34c6ce7d429af6ab71e4db5 *08 Beat It On Down The Line.flac
7923a21ad203c51ffa3b4507adfed7b9 *09 Promised Land.flac
759f9fadcf1320fa0b30af39b3f13c6b *10 China Cat Sunflower.flac
736c46d93e1a30f7c8482f1f47b4e4b4 *11 I Know You Rider.flac
488679272f9dc670e12a92962880f808 *12 Tuning.flac
7bedf4489f1811590034c8f1d21b51ce *13 Iko Iko.flac
9621f270e490764c11c80ca6573d3a8f *14 Man Smart (Woman Smarter).flac
3c89a06de242fc5b7b77dde849df679d *15 Ship Of Fools.flac
f86f051277485aab9ac73dc0bbd00bed *16 Estimated Prophet.flac
c4320820ddf6409e9f0d87990563e845 *17 Truckin'.flac
64fb68677bf34a463c7aef23717f7a09 *18 Drums.flac
c188d5f6e45f80015a546432a21331d1 *19 The Other One.flac
d42629d85dbf39106c95203ff75fb7d2 *20 Wharf Rat.flac
6561e374a29279f567c41b28b7147a25 *21 Throwing Stones.flac
7499531f103ff61c33dcec44e0dbba50 *22 Not Fade Away.flac
68157aa057f517d53d712790789efcf1 *23 Not Fade Away.flac
106fa895e774c11b3c94a7ab1f78aefd *24 Brokedown Palace.flac

Comments
Add Comment
Other Sources (comments)
AUD>DAT>CDR; via Easy Jim;... (1) SBD > MC > C > DAT > CD >... (1) flac16; Source:... (0) flac16; Recording... (0) flac16; Source:... (0) flac24; Recording... (0) flac24; Recording... (0) flac16; Recording... (0) flac16; Source Info:... (0)
Date User Comment