Browse Collections Artists Sources   Search Dates

Add Show    List Management    Help


Grateful Dead 01/30/87
San Francisco Civic Auditorium, San Francisco, CA
Comments Add Comment    Source Collectors    Add to Collection    Add to Want List    History
Source # 140810 Other Sources
Entered by Matt Vernon
Checksums ffp , flac-md5
Disc Counts 0 / 0
Media Size
Date Circulated
Date Added
01/21/2018
01/21/2018
Source Summary flac24; Recording Info: SBD > Cassette Master (TDK SA-X90); Transfer Info: Cassette Master (Nakamichi CR-7A) > Tascam DA-3000 (DSF 1-bit/5.8 MHz) > KORG AudioGate 4 > Adobe Audition CC2015 > Samplitude Pro X3 Suite > FLAC/24; All Transfers and Mastering By Charlie Miller 
  Archive
Source Information - Download Text | Download Zip
Grateful Dead - January 30, 1987
San Francisco Civic Auditorium - San Francisco, CA

Recording Info:
SBD > Cassette Master (TDK SA-X90)

Transfer Info:
Cassette Master (Nakamichi CR-7A) > Tascam DA-3000 (DSF 1-bit/5.8 MHz) >
KORG AudioGate 4 > Adobe Audition CC2015 > Samplitude Pro X3 Suite > FLAC/24
(1 Disc FLAC)

All Transfers and Mastering By Charlie Miller
[email protected]
January 21, 2018

Notes:
-- Two sets of masters were used to make this show complete

Set 1:
01 - Tuning
02 - Touch Of Grey
03 - New Minglewood Blues
04 - Candyman
05 - Me And My Uncle >
06 - Mexicali Blues
07 - When Push Comes To Shove
08 - Beat It On Down The Line >
09 - The Promised Land >
10 - China Cat Sunflower >
11 - I Know You Rider

Set 2:
12 - Tuning
13 - Iko Iko >
14 - Man Smart (Woman Smarter)
15 - Ship Of Fools
16 - Estimated Prophet >
17 - Truckin' >
18 - Drums >
19 - The Other One >
20 - Wharf Rat >
21 - Throwing Stones >
22 - Not Fade Away

Encore:
23 - Encore Break
24 - Not Fade Away >
25 - Brokedown Palace


SHNTOOL OUTPUT:
    length     expanded size    cdr  WAVE problems  fmt   ratio  filename
     0:42.712      24602156 B   cxx   --   ---xx   flac  0.6638  01 Tuning.flac
     6:23.458     220871666 B   cxx   --   ---xx   flac  0.7131  02 Touch Of Grey.flac
     8:11.283     282978932 B   cxx   --   ---xx   flac  0.6926  03 New Minglewood Blues.flac
     8:38.375     298584032 B   cxx   --   ---xx   flac  0.6896  04 Candyman.flac
     2:46.218      95741618 B   cxx   --   ---xx   flac  0.7054  05 Me And My Uncle.flac
     6:43.980     232692704 B   cxx   --   ---xx   flac  0.6882  06 Mexicali Blues.flac
     6:28.343     223685420 B   cxx   --   ---xx   flac  0.6888  07 When Push Comes To Shove.flac
     3:23.551     117245642 B   cxx   --   ---xx   flac  0.7088  08 Beat It On Down The Line.flac
     3:58.343     137285552 B   cxx   --   ---xx   flac  0.7009  09 Promised Land.flac
     5:06.859     176750966 B   cxx   --   ---xx   flac  0.6908  10 China Cat Sunflower.flac
     5:20.013     184327712 B   cxx   --   ---xx   flac  0.6915  11 I Know You Rider.flac
     1:42.222      58879868 B   cxx   --   ---xx   flac  0.6396  12 Tuning.flac
     5:21.832     185375012 B   cxx   --   ---xx   flac  0.6902  13 Iko Iko.flac
     6:56.249     239759204 B   cxx   --   ---xx   flac  0.6848  14 Man Smart (Woman Smarter).flac
     9:17.966     321388448 B   cxx   --   ---xx   flac  0.6779  15 Ship Of Fools.flac
    10:54.950     377251112 B   cxx   --   ---xx   flac  0.6789  16 Estimated Prophet.flac
     9:02.090     312243938 B   cxx   --   ---xx   flac  0.6870  17 Truckin'.flac
    10:43.456     370630754 B   cxx   --   ---xx   flac  0.6511  18 Drums.flac
    10:15.742     354667682 B   cxx   --   ---xx   flac  0.6667  19 The Other One.flac
     9:06.647     314868530 B   cxx   --   ---xx   flac  0.6874  20 Wharf Rat.flac
     8:39.862     299440286 B   cxx   --   ---xx   flac  0.6879  21 Throwing Stones.flac
     6:59.968     241901330 B   cxx   --   ---xx   flac  0.6909  22 Not Fade Away.flac
     0:48.384      27869240 B   cxx   --   ---xx   flac  0.6515  23 Encore Break.flac
     2:00.258      69268796 B   cxx   --   ---xx   flac  0.6809  24 Not Fade Away.flac
     6:28.538     223797650 B   cxx   --   ---xx   flac  0.6832  25 Brokedown Palace.flac
   156:01.297    5392108250 B                            0.6844  (25 files)


Show Checksums
ffp
01 Tuning.flac:49d9447a0c095cad8a3e74e3bf587d1c
02 Touch Of Grey.flac:759c160ac7c1053238f1c6641e8a0ef4
03 New Minglewood Blues.flac:560826946aac3ce67bd7155988009d4b
04 Candyman.flac:a91952a47be412761d446a1c61846f55
05 Me And My Uncle.flac:a57c5f721f3f839cc55eb0caeac53cac
06 Mexicali Blues.flac:a246e497be5f6ad208bd9b7c2d8d4845
07 When Push Comes To Shove.flac:3fad52b486b0c90bde0cbce129074cdd
08 Beat It On Down The Line.flac:a295d0ac7ca2cef53837ae8308f8cb31
09 Promised Land.flac:c2220b5b376b0ce33676f6fc65ec4458
10 China Cat Sunflower.flac:00b13abe06c4e804420ccabbd6a41fca
11 I Know You Rider.flac:3824ad07dceca86787fcc6efb3dbc930
12 Tuning.flac:539db95323baa5103ce562eb5c2a0687
13 Iko Iko.flac:69c353f9bc8c66e03145fcd0af0b43f3
14 Man Smart (Woman Smarter).flac:10a0da725050f99a1e8158f381ff5611
15 Ship Of Fools.flac:f7a58e599f2a6f60aaa3e3ed8b9f3be7
16 Estimated Prophet.flac:abbeff5c7ccad6593c2b49896132ac0a
17 Truckin'.flac:672f71ceff1b4d2f1c3b7c4c679fddbc
18 Drums.flac:6d15331c62cf59718d827a281a2b4a45
19 The Other One.flac:54972a4ee2914d3b0bcb7b5754c2cfdf
20 Wharf Rat.flac:7bdac90f0fac43016af595d8be2ff00d
21 Throwing Stones.flac:35d8c6fafb6ac526488452aaa04f415e
22 Not Fade Away.flac:d08acf7d978413042b493ffe7eaa87a6
23 Encore Break.flac:2b2e04aece44bb8ddf7cf3c84d17bf7c
24 Not Fade Away.flac:b60703a877261e6f531c9d6ab146bb2a
25 Brokedown Palace.flac:d6df3b9a9551780d4a0f0b72e455de22
flac-md5
7806cc22c2ce2f358677ad3da962cf3f *01 Tuning.flac
e2365a74376c35626b9b039ba9f87b09 *02 Touch Of Grey.flac
e03f15e1457574553cac0f1c544ba278 *03 New Minglewood Blues.flac
eb55161f76d0da687234fcdb4571efb1 *04 Candyman.flac
35b6295f97f9fee5f5368ca06a8d0ae6 *05 Me And My Uncle.flac
cfb014917343b1b607bd934fc8a28e23 *06 Mexicali Blues.flac
140195fe7b5a7dbc4e25c624d892d4f3 *07 When Push Comes To Shove.flac
0c69031369c5f8f09077c1628b6c1e36 *08 Beat It On Down The Line.flac
7fda08680ad0202826e722bc2cb45a0a *09 Promised Land.flac
edc4ae2351983489e6ec9959a3f2647d *10 China Cat Sunflower.flac
3eee50e9e7753c433a8109a6182a3b6b *11 I Know You Rider.flac
d0e0400aa5a7c5fd8f3b0e53af19c701 *12 Tuning.flac
62f65ee281d144ccd6944f9471f6534c *13 Iko Iko.flac
2f5a260911ad12b19b298ec68e302be7 *14 Man Smart (Woman Smarter).flac
c0209407ae20a784695aa2ac5d0e1bb4 *15 Ship Of Fools.flac
82b996ab3a043197f5ef31dd7dc61cc5 *16 Estimated Prophet.flac
eba86ec34fc8ad55113791c9091ab74c *17 Truckin'.flac
dba4a28faca0a92ac9081932fe95cfeb *18 Drums.flac
220f27df1d002da1b7513375164155e1 *19 The Other One.flac
37baa42212859eac96f2ae63cf22c72b *20 Wharf Rat.flac
a3e56ea6289a23e3c524a805379145f3 *21 Throwing Stones.flac
033efbc0e5c11addfb3e2d2ea4c38573 *22 Not Fade Away.flac
5ca23d34e387da511944104fe116268e *23 Encore Break.flac
c9dfc150ca242ee19f91c16530bde70a *24 Not Fade Away.flac
d66db3c020eee84042f807f115ae997e *25 Brokedown Palace.flac

Comments
Add Comment
Other Sources (comments)
AUD>DAT>CDR; via Easy Jim;... (1) SBD > MC > C > DAT > CD >... (1) flac16; Source:... (0) flac16; Recording... (0) flac16; Source:... (0) flac24; Recording... (0) flac16; Recording... (0) flac16; Recording... (0) flac16; Source Info:... (0)
Date User Comment