Browse Collections Artists Sources   Search Dates

Add Show    List Management    Help


Grateful Dead 10/12/83
Madison Square Garden, New York, NY
Comments Add Comment    Source Collectors    Add to Collection    Add to Want List    History
Source # 140818 Other Sources
Entered by Matt Vernon
Checksums ffp , flac-md5
Disc Counts 0 / 0
Media Size
Date Circulated
Date Added
01/22/2018
01/22/2018
Source Summary flac24; Partial Show Recording Info: AKG Mics (m/s) > Cassette Master (Sony TC-D5M/TDK MA-R90/Dolby B); Transfer Info: Cassette Master (Nakamichi CR-7A/Dolby B) > Tascam DA-3000 (DSF 1-bit/5.8 MHz) > KORG AudioGate 4 > Samplitude Pro X3 Suite > FLAC/24; All Transfers and Mastering By Charlie Miller 
  Archive
Source Information - Download Text | Download Zip
Grateful Dead - October 12, 1983
Madison Square Garden - New York, NY

Recording Info:
AKG Mics (m/s) > Cassette Master (Sony TC-D5M/TDK MA-R90/Dolby B)

Transfer Info:
Cassette Master (Nakamichi CR-7A/Dolby B) > Tascam DA-3000 (DSF 1-bit/5.8 MHz) >
KORG AudioGate 4 > Samplitude Pro X3 Suite > FLAC/24
(1 Disc FLAC)

All Transfers and Mastering By Charlie Miller
[email protected]
January 22, 2018

Notes:
-- Recorded by The Grateful Dead crew at the sound booth
-- This may be from Dan Healy's AKG 414's but I can not confirm

Set 1:
01 - Cold Rain And Snow
02 - New Minglewood Blues
03 - Ramble On Rose
04 - My Brother Esau
05 - It Must Have Been The Roses
06 - Cassidy
07 - Cumberland Blues >
08 - Looks Like Rain >
09 - Might As Well

Set 2:
10 - Tuning
11 - Help On The Way >
12 - Slipknot! >
13 - Franklin's Tower//


SHNTOOL OUTPUT:
   length     expanded size    cdr  WAVE problems  fmt   ratio  filename
    6:56.068     239654948 B   cxx   --   ---xx   flac  0.6708  01 Cold Rain And Snow.flac
    9:20.448     322817810 B   cxx   --   ---xx   flac  0.6679  02 New Minglewood Blues.flac
    7:05.382     245019950 B   cxx   --   ---xx   flac  0.6655  03 Ramble On Rose.flac
    6:14.070     215464202 B   cxx   --   ---xx   flac  0.6608  04 My Brother Esau.flac
    5:35.219     193086404 B   cxx   --   ---xx   flac  0.6665  05 It Must Have Been The Roses.flac
    6:09.426     212789186 B   cxx   --   ---xx   flac  0.6826  06 Cassidy.flac
    9:36.258     331924472 B   cxx   --   ---xx   flac  0.6849  07 Cumberland Blues.flac
    8:27.422     292275254 B   cxx   --   ---xx   flac  0.6554  08 Looks Like Rain.flac
    4:39.404     160936790 B   cxx   --   ---xx   flac  0.6762  09 Might As Well.flac
    0:18.539      10678388 B   cxx   --   ---xx   flac  0.6289  10 Tuning.flac
    3:58.731     137509064 B   cxx   --   ---xx   flac  0.6822  11 Help On The Way.flac
    9:26.174     326116130 B   cxx   --   ---xx   flac  0.6813  12 Slipknot!.flac
    9:58.803     344910692 B   cxx   --   ---xx   flac  0.6837  13 Franklin's Tower.flac
   87:45.942    3033183290 B                            0.6732  (13 files)




Show Checksums
ffp
01 Cold Rain And Snow.flac:effb020113d7c6820195ca814230730f
02 New Minglewood Blues.flac:90539f3d6bed1f8af2405606dafbd994
03 Ramble On Rose.flac:9ad5c239d4b7251f944fa3a2bbf006be
04 My Brother Esau.flac:f82ef08812c0bed40fa22b61f89bc28d
05 It Must Have Been The Roses.flac:45c8c7ab918ab79ef2aa03034e0bcad5
06 Cassidy.flac:f9a062a814c9320cf8737f2ff34782d3
07 Cumberland Blues.flac:3a959ca9a598e7e5a4729726574cf2f0
08 Looks Like Rain.flac:f5f5f4856541e468ca4fc7e34ff7f9e5
09 Might As Well.flac:a64675e46f4488b0ec6701c3a0d130ef
10 Tuning.flac:41a4bf8641ddd9191ca678d6edaaeb0b
11 Help On The Way.flac:1eca92dda7353617d8342abe40b1399b
12 Slipknot!.flac:ef3661534ee0bce7c239cdf6cb7ccddf
13 Franklin's Tower.flac:cf6a12ddb52815c785a40560c4f50c54
flac-md5
3588bb2168d4f552a95ce29ecd510dbd *01 Cold Rain And Snow.flac
f87b5401a0c045d2ffb3638985c10eac *02 New Minglewood Blues.flac
86285befea337fc501e0c86f480c47df *03 Ramble On Rose.flac
8dfc67e5d25d6f0ce4c912fe0c206352 *04 My Brother Esau.flac
c77be5e078b184ac9db4f076f8916330 *05 It Must Have Been The Roses.flac
df72cc22aa04dee6c05358f7b3eadf4f *06 Cassidy.flac
7d98805ad80e04e0db9cc286da95944b *07 Cumberland Blues.flac
edc10caf5dd83c1c41f72c1eaccf4cb4 *08 Looks Like Rain.flac
0ef850a3898e511ee68365059d96e27e *09 Might As Well.flac
f10f90b4f961d82bbf39c5b106d76a2f *10 Tuning.flac
d913e91c55f0cbb9a398a047d27f1999 *11 Help On The Way.flac
1ab49ab71b4f30d807f608dd64605dde *12 Slipknot!.flac
9135d9f6845dd28fcf037f1a8cdcc9f0 *13 Franklin's Tower.flac

Comments
Add Comment
Other Sources (comments)
unknown aud (could be FOB... (2) SBD > Cassette Master > Dat... (0) flac16; Source: FOB... (0) flac16; Sennheiser... (0) flac16; Recording... (0) flac16; SBD and... (0) 2 Beyer M160>Sony TCD5M... (0) flac16; Lineage:... (0) flac16; Source: 2... (0) flac24; Updated... (0) flac16; 2 Source... (0) flac24; Master... (0) flac16; Master... (0) flac24; Updated... (2) flac16; Updated... (2) flac16; Partial Show... (0)
Date User Comment