Browse Collections Artists Sources   Search Dates

Add Show    List Management    Help


Grateful Dead 10/02/80
Warfield Theater, San Francisco, CA
Comments Add Comment    Source Collectors    Add to Collection    Add to Want List    History
Source # 140819 Other Sources
Entered by Matt Vernon
Checksums flac-md5 , ffp
Disc Counts 0 / 0
Media Size
Date Circulated
Date Added
01/22/2018
01/22/2018
Source Summary flac24; Partial Show Recording Info: AKG Mics (m/s) > Cassette Master (Sony TC-D5M/Maxell UD-XLII/Dolby B); Transfer Info: Cassette Master (Nakamichi CR-7A/Dolby B) > Tascam DA-3000 (DSF 1-bit/5.8 MHz) > KORG AudioGate 4 > Samplitude Pro X3 Suite > FLAC/24; All Transfers and Mastering By Charlie Miller 
  Archive
Source Information - Download Text | Download Zip
Grateful Dead - October 2, 1980
Warfield Theatre - San Francisco, CA

Recording Info:
AKG Mics (m/s) > Cassette Master (Sony TC-D5M/Maxell UD-XLII/Dolby B)

Transfer Info:
Cassette Master (Nakamichi CR-7A/Dolby B) > Tascam DA-3000 (DSF 1-bit/5.8 MHz) >
KORG AudioGate 4 > Samplitude Pro X3 Suite > FLAC/24
(1 Disc FLAC)

All Transfers and Mastering By Charlie Miller
[email protected]
January 22, 2018

Patch Info:
Nakamichi 700 > Cassette Master > Reel (shnid=89111) supplies:
I Know You Rider (3:50 - end of track)

Notes:
-- It appears to be the middle tape of a 3 tape show
-- Recorded by The Grateful Dead crew at the sound booth
-- This may be from Dan Healy's AKG 414's but I can not confirm

Set 2:
01 - Tuning
02 - It Must Have Been The Roses
03 - It's All Over Now
04 - Loser >
05 - Looks Like Rain
06 - China Cat Sunflower >
07 - I Know You Rider

Set 3:
08 - Comes A Time >
09 - Lost Sailor >
10 - Saint Of Circumstance >
11 - Terrapin Station >
12 - Playing In The Band >
13 - Drums >
14 - Space (cut)


SHNTOOL OUTPUT:
    length     expanded size    cdr  WAVE problems  fmt   ratio  filename
     1:16.474      44048960 B   cxx   --   ---xx   flac  0.6341  01 Tuning.flac
     8:16.624     286055624 B   cxx   --   ---xx   flac  0.6445  02 It Must Have Been The Roses.flac
     9:26.482     326293592 B   cxx   --   ---xx   flac  0.6567  03 It's All Over Now.flac
     6:56.882     240124262 B   cxx   --   ---xx   flac  0.6490  04 Loser.flac
     9:58.437     344699636 B   cxx   --   ---xx   flac  0.6347  05 Looks Like Rain.flac
     6:28.712     223898030 B   cxx   --   ---xx   flac  0.6564  06 China Cat Sunflower.flac
     6:17.940     217693610 B   cxx   --   ---xx   flac  0.6526  07 I Know You Rider.flac
     7:16.467     251404982 B   cxx   --   ---xx   flac  0.6482  08 Comes A Time.flac
     6:43.787     232581614 B   cxx   --   ---xx   flac  0.6522  09 Lost Sailor.flac
     7:00.057     241952696 B   cxx   --   ---xx   flac  0.6616  10 Saint Of Circumstance.flac
    11:55.054     411870908 B   cxx   --   ---xx   flac  0.6479  11 Terrapin Station.flac
     6:02.798     208971416 B   cxx   --   ---xx   flac  0.6542  12 Playing In The Band.flac
     6:31.121     225285974 B   cxx   --   ---xx   flac  0.6226  13 Drums.flac
     0:43.352      24970856 B   cxx   --   ---xx   flac  0.6493  14 Space.flac
    94:54.187    3279852160 B                            0.6479  (14 files)


Show Checksums
flac-md5
8f99fa5b27cec37b16854f8d4862b300 *01 Tuning.flac
770c43acf1ff91ab6b07a18e729d598b *02 It Must Have Been The Roses.flac
e39c3356bcae169faf51ed835df03b69 *03 It's All Over Now.flac
7837a7f0caa55780d70813a6b03ddc75 *04 Loser.flac
29ac43fa97a7690ad0d3c2cc50ed7f52 *05 Looks Like Rain.flac
2e8ae4d43fa29856b299188367094a9b *06 China Cat Sunflower.flac
7d4195303b45c90a28b3561318eeedbb *07 I Know You Rider.flac
f366f895607674c28e05d1c87589de4b *08 Comes A Time.flac
52b2cba3aff5126635368e523eee70e8 *09 Lost Sailor.flac
4cb43678ce47b8061ca20f62c15e8259 *10 Saint Of Circumstance.flac
d050dc4cd1972f680812d94ce2468fa8 *11 Terrapin Station.flac
661e632065c0bb9ce94af548ffe2a2fc *12 Playing In The Band.flac
41e93720d5156115bf593bfa9d1e13ea *13 Drums.flac
3b94c3872fa2017e12f2f2c3f2374dae *14 Space.flac
ffp
01 Tuning.flac:d37d6a748dfcd6c7026271fa0615a2cc
02 It Must Have Been The Roses.flac:d3d2e5936f612b878d3da6f360998981
03 It's All Over Now.flac:126ae80f30405b281b19600301b870bf
04 Loser.flac:833a91b9c39eb5f3177cfd7fbc70822f
05 Looks Like Rain.flac:dc289c5032d62d19eda4a0a6da5352ac
06 China Cat Sunflower.flac:6857662805cb501dd1c38cfa01f9fcee
07 I Know You Rider.flac:85295efe265109e1140ce2d32922e793
08 Comes A Time.flac:0e58935d125c3a202fc201e0635985a4
09 Lost Sailor.flac:ad3de4c77f2e457c5f2c897647097c69
10 Saint Of Circumstance.flac:a8efdb3aaa40b7977cd6c2f2a94c0551
11 Terrapin Station.flac:4e318215518640b67a1dc3f7c67b32e8
12 Playing In The Band.flac:20ef3d67b6327aa5cf07351115c4d776
13 Drums.flac:c712f8b5da51d62550ed47af23de5f54
14 Space.flac:512a3318771b9357b2e0b2148daa073a

Comments
Add Comment
Other Sources (comments)
set 3; SBD-> Master... (2) Acoustic set; SBD> MR>... (2) acoustic and electric sets;... (0) flac16; Recording by... (0) flac16; Acoustic... (1) flac16; Acoustic Set... (0) flac16; Recording... (0) flac16; SBD > ? >... (0) flac16; Partial Show... (0)
Date User Comment