Browse Collections Artists Sources   Search Dates

Add Show    List Management    Help


Grateful Dead 09/22/93
Madison Square Garden, New York, NY
Comments Add Comment    Source Collectors    Add to Collection    Add to Want List    History
Source # 140821 Other Sources
Entered by Matt Vernon
Checksums flac-md5 , ffp
Disc Counts 0 / 0
Media Size
Uncompressed: 1.66 GB (1784840560 bytes)
Date Circulated
Date Added
01/23/2018
01/23/2018
Source Summary flac16/48kHz; Source: (FOB) Schoeps MK41 > Panasonic SV-255 > dat(48k); Transfer: dat > Sony PCM-R500 > Tascam DA-3000> wav 16/48; Lineage: wav > iZotope RX6 Advanced > iZotope Ozone 5 Advanced > CD Wave > TLH > Flac 1648; edited and mastered SIRMick January 2018 
  Archive
Source Information - Download Text | Download Zip
Grateful Dead
Madison Square Garden
New York , NY
09/22/1993


Source: (FOB) Schoeps MK41 > Panasonic SV-255 > dat(48k)
Transfer: dat > Sony PCM-R500 > Tascam DA-3000> wav 16/48
Lineage: wav > iZotope RX6 Advanced > iZotope Ozone 5 Advanced > CD Wave > TLH > Flac 1648



Set I

01   tuning
02   Help On The Way >
03   Slipknot! >
04   Franklin's Tower
05   New Minglewood Blues
06   Ramble On Rose
07   When I Paint My Masterpiece
08   Bird Song (1)


Set II

01   tuning
02   Easy Answers (1)
03   Lazy River Road (1)
04   Estimated Prophet  > (1)
05   Dark Star  > (1)
06   Drums  > (1)
07   Space  > (1)
08   Wharf Rat  > (1)
09   Throwing Stones  > (1) (2)
10   Turn On Your Love Light  > (1) (2)
11   ~~encore break~~

encore

12   I Fought The Law



guests:

David Murray - saxophone (1)
James Cotton - harmonica (2)




Thanks to Charlie Miller for providing this source and doing the transfer


edited and mastered
SIRmick
January 2018


shntool output:

    length     expanded size    cdr  WAVE problems  fmt   ratio  filename
     4:28.640      51578924 B   cxx   --   ---xx   flac  0.4447  gd1993-09-22s1t01.flac
     3:12.813      37020204 B   cxx   --   ---xx   flac  0.6061  gd1993-09-22s1t02.flac
     7:17.173      83937324 B   cxx   --   ---xx   flac  0.5922  gd1993-09-22s1t03.flac
    10:05.320     116221484 B   cxx   --   ---xx   flac  0.6148  gd1993-09-22s1t04.flac
     9:06.320     104893484 B   cxx   --   ---xx   flac  0.5440  gd1993-09-22s1t05.flac
     7:58.733      91916844 B   cxx   --   ---xx   flac  0.6045  gd1993-09-22s1t06.flac
     5:24.173      62241324 B   cxx   --   ---xx   flac  0.5694  gd1993-09-22s1t07.flac
    14:08.907     162990124 B   cxx   --   ---xx   flac  0.5708  gd1993-09-22s1t08.flac
     2:00.227      23083564 B   cxx   --   ---xx   flac  0.4488  gd1993-09-22s2t01.flac
     6:25.187      73955884 B   cxx   --   ---xx   flac  0.6030  gd1993-09-22s2t02.flac
     7:37.107      87764524 B   cxx   --   ---xx   flac  0.5846  gd1993-09-22s2t03.flac
    15:40.160     180510764 B   cxx   --   ---xx   flac  0.5893  gd1993-09-22s2t04.flac
     7:44.707      89223724 B   cxx   --   ---xx   flac  0.5502  gd1993-09-22s2t05.flac
    13:13.813     152412204 B   cxx   --   ---xx   flac  0.4974  gd1993-09-22s2t06.flac
    10:35.573     122030124 B   cxx   --   ---xx   flac  0.5350  gd1993-09-22s2t07.flac
    10:40.960     123064364 B   cxx   --   ---xx   flac  0.5824  gd1993-09-22s2t08.flac
     9:05.987     104829484 B   cxx   --   ---xx   flac  0.6027  gd1993-09-22s2t09.flac
     4:40.240      53806124 B   cxx   --   ---xx   flac  0.5885  gd1993-09-22s2t10.flac
     1:55.533      22182444 B   cxx   --   ---xx   flac  0.4544  gd1993-09-22s2t11.flac
     3:34.467      41177644 B   cxx   --   ---xx   flac  0.6050  gd1993-09-22s2t12.flac
   154:56.040    1784840560 B                            0.5670  (20 files)


Show Checksums
flac-md5
799f651ce4d3449caa4d58ade1a67912 *gd1993-09-22s1t01.flac
b6c121a85be32cd4109c5e9a7fd7113f *gd1993-09-22s1t02.flac
dd040f835a2eaa46717e50aa6da1706b *gd1993-09-22s1t03.flac
7b709098732a6b7fcb4b4d66fd204ed8 *gd1993-09-22s1t04.flac
5b09ae00f10f0d5d52c7a2bb6d305914 *gd1993-09-22s1t05.flac
fbafaf5444276911f6466de821aa58ac *gd1993-09-22s1t06.flac
d92a4336736d4361486f19ac6e10e935 *gd1993-09-22s1t07.flac
b0ff96338347777ad4edab738faf372a *gd1993-09-22s1t08.flac
f2499b4bd76718491c052efa3cee6a9e *gd1993-09-22s2t01.flac
a95829fe18e3dc6df27907b5d98a5064 *gd1993-09-22s2t02.flac
61d3693d9bcd2657ecdceefe17c337eb *gd1993-09-22s2t03.flac
3d75cb31afb489fac94a031f91aa20b6 *gd1993-09-22s2t04.flac
36c34130638700d5da02fc307780b2d3 *gd1993-09-22s2t05.flac
762ca38a5e388a7f4b5b427a116ea327 *gd1993-09-22s2t06.flac
eb67ef22f049d5cf991aa4fb1eae863e *gd1993-09-22s2t07.flac
690ed78e04e814c0153d2421cbb48128 *gd1993-09-22s2t08.flac
884f3245de5522d546138f364eba085d *gd1993-09-22s2t09.flac
73a8d527a9fd36616ef0a44eda7207a2 *gd1993-09-22s2t10.flac
8cbad152e8c394d2d099454fdf890077 *gd1993-09-22s2t11.flac
eeb24735603219854c2176b56aa9dcab *gd1993-09-22s2t12.flac
ffp
gd1993-09-22s1t01.flac:5e9c7c57255b2895ea78917f2bd4edba
gd1993-09-22s1t02.flac:ae417876f2917edc0eb02ba01bc665f5
gd1993-09-22s1t03.flac:d034f043efc02cf928d01ec61feeed63
gd1993-09-22s1t04.flac:b23bb3bcea1e8667d32867013240b567
gd1993-09-22s1t05.flac:8f361c65722d4e6cb3cd90f1c04fe398
gd1993-09-22s1t06.flac:82a381fef157d7edb2bae94db64aa558
gd1993-09-22s1t07.flac:d130fb788c89666df4a6177887c65f76
gd1993-09-22s1t08.flac:5739d8ce01fddbd3d142b6a99b09c249
gd1993-09-22s2t01.flac:b3524bf6024f191f1c488251f271aa9b
gd1993-09-22s2t02.flac:80abe01e328bf39eb2c97e1505035424
gd1993-09-22s2t03.flac:808e7b18f0efe12154f55b0ea6a26fc6
gd1993-09-22s2t04.flac:a9c27ffbd493932ec4ace06530d7f937
gd1993-09-22s2t05.flac:f64cc8138d2209bbd48d561acfa7d221
gd1993-09-22s2t06.flac:dc2a5f6620e321015426308a41349ba9
gd1993-09-22s2t07.flac:ea2a8d7dbefacf5188ed0585672923e7
gd1993-09-22s2t08.flac:ded96ab59b47d27b673cd74794d9d459
gd1993-09-22s2t09.flac:00a7f13938d403f745c95fc36b4a86f6
gd1993-09-22s2t10.flac:f3363818b47e9195bdb996d7f9e456d2
gd1993-09-22s2t11.flac:6636e7318760157528321b9061dfdae1
gd1993-09-22s2t12.flac:464404d25535d3f96533d18b8af53222

Comments
Add Comment
Other Sources (comments)
DSBD> DAT> CDR> EAC> WAV>... (2) Recorded FOB/DFC by James... (2) DAUD/FOB Schoeps... (0) Source: SBD:DAT-> CDR -... (0) flac16; FOB Digital... (0) flac16; Schoeps... (0) flac16; Master: OTS... (0) flac16; Two Source... (0) flac16; Matrix using... (1) flac16; Matrix... (0) flac16; AUD: Schoeps... (0) flac16/48kHz;... (0) flac16; Matrix 2... (0) DTS-Audio-CD 5.1... (0) flac16/48kHz; 5.1... (0)
Date User Comment
01/29/2018 [email protected] This is actually Schoeps MK2's > Dat