Browse Collections Artists Sources   Search Dates

Add Show    List Management    Help


Grateful Dead 12/28/79
Oakland Auditorium Arena, Oakland, CA
Comments Add Comment    Source Collectors    Add to Collection    Add to Want List    History
Source # 140833 Other Sources
Entered by Matt Vernon
Checksums flac-md5 , ffp
Disc Counts 0 / 0
Media Size
Date Circulated
Date Added
01/24/2018
01/24/2018
Source Summary flac16; Recording Info: Master Soundboard Reels > PCM; Transfer Info: PCM (Sony SL-10) > Sony PCM-601ESD > Behringer Ultramatch Pro > Tascam DA-3000(wav 16-bit/44.1k) > Adobe Audition 3.0 > TLH flac16; this sources fixes two 2 dropouts in the previous source 
  Archive
Source Information - Download Text | Download Zip
Grateful Dead
Oakland Auditorium
Oakland, CA
Friday December 28, 1979

Recording Info:
Master Soundboard Reels > PCM

Transfer Info:
PCM (Sony SL-10) > Sony PCM-601ESD > Behringer Ultramatch Pro > Tascam DA-3000(wav 16-bit/44.1k) > Adobe Audition 3.0 > TLH flac16

Notes:
- Thanks to Charlie Miller for the PCM source
- Thanks to Charlie Miller for the transfer
- Thanks to the folks responsible for the shnid103117 Sennheiser 421 source which supplies a 0:32 patch in "Drums"
- Thanks to Charlie Miller for the shnid134499 soundboard source which supplies a 0:0.191 and a 0:0.168 patch to repair 2 dropouts in Sugaree at 2:51 and 8:04

Mastered by Scott Clugston
January 21, 2018

Set 1:
t01 - Tuning
t02 - Sugaree
t03 - Mama Tried >
t04 - Mexicali Blues
t05 - Row Jimmy
t06 - It's All Over Now
t07 - High Time
t08 - The Music Never Stopped

Set 2:
t09 - Tuning
t10 - Alabama Getaway >
t11 - Greatest Story Ever Told
t12 - Terrapin Station >
t13 - Playing In The Band >
t14 - Drums >
t15 - Space >
t16 - Uncle John's Band >
t17 - I Need A Miracle >
t18 - Bertha >
t19 - Good Lovin'
Encore:
t20 - Casey Jones
t21 - One More Saturday Night

    length     expanded size    cdr  WAVE problems  fmt   ratio  filename
     1:48.46       19159436 B   ---   --   ---xx   flac  0.4771  gd79-12-28 t01 Tuning.flac
    16:34.62      175487468 B   ---   --   ---xx   flac  0.6067  gd79-12-28 t02 Sugaree.flac
     2:29.09       26304812 B   ---   --   ---xx   flac  0.6107  gd79-12-28 t03 Mama Tried.flac
     6:01.72       63849788 B   ---   --   ---xx   flac  0.5868  gd79-12-28 t04 Mexicali Blues.flac
    14:02.59      148667612 B   ---   --   ---xx   flac  0.5829  gd79-12-28 t05 Row Jimmy.flac
     8:27.50       89552444 B   ---   --   ---xx   flac  0.6364  gd79-12-28 t06 It's All Over Now.flac
     7:00.07       74104508 B   ---   --   ---xx   flac  0.5542  gd79-12-28 t07 High Time.flac
     8:42.48       92193740 B   ---   --   ---xx   flac  0.6457  gd79-12-28 t08 The Music Never Stopped.flac
     1:37.39       17202572 B   ---   --   ---xx   flac  0.4476  gd79-12-28 t09 Tuning.flac
     6:43.59       71228012 B   ---   --   ---xx   flac  0.6408  gd79-12-28 t10 Alabama Getaway.flac
     5:34.21       58967036 B   ---   --   ---xx   flac  0.6132  gd79-12-28 t11 Greatest Story Ever Told.flac
    14:03.73      148876940 B   ---   --   ---xx   flac  0.5987  gd79-12-28 t12 Terrapin Station.flac
    17:35.03      186109100 B   ---   --   ---xx   flac  0.6316  gd79-12-28 t13 Playin' In The Band.flac
     7:34.63       80233820 B   ---   --   ---xx   flac  0.5135  gd79-12-28 t14 Drums.flac
     2:26.05       25766204 B   ---   --   ---xx   flac  0.5101  gd79-12-28 t15 Space.flac
     9:37.70      101947484 B   ---   --   ---xx   flac  0.6337  gd79-12-28 t16 Uncle John's Band.flac
     4:03.40       42959324 B   ---   --   ---xx   flac  0.6492  gd79-12-28 t17 I Need A Miracle.flac
     6:32.42       69247628 B   ---   --   ---xx   flac  0.6440  gd79-12-28 t18 Bertha.flac
     7:39.17       81007628 B   ---   --   ---xx   flac  0.6407  gd79-12-28 t19 Good Lovin'.flac
     6:25.72       68083388 B   ---   --   ---xx   flac  0.6041  gd79-12-28 t20 Casey Jones.flac
     5:01.59       53235212 B   ---   --   ---xx   flac  0.6435  gd79-12-28 t21 One More Saturday Night.flac
   160:04.16     1694184156 B                            0.6070  (21 files)


Show Checksums
flac-md5
883b89e62f3f0926278830ec54d192b3 *gd79-12-28 t01 Tuning.flac
6636d6686f9b0e8804737767af523cb9 *gd79-12-28 t02 Sugaree.flac
4861e4aec2aa4a0ba291401edab7f877 *gd79-12-28 t03 Mama Tried.flac
235524e029651295a93bf1c68eb81d6f *gd79-12-28 t04 Mexicali Blues.flac
ebeaaa91d4b91dc4d71790fb30ed3a28 *gd79-12-28 t05 Row Jimmy.flac
b285d9f3afbcaf3828c57d23c3d64991 *gd79-12-28 t06 It's All Over Now.flac
a98d3dc5244075cf6616087c3f583846 *gd79-12-28 t07 High Time.flac
ea0134c27e604fe5fee15653e855dc05 *gd79-12-28 t08 The Music Never Stopped.flac
8bdcd71b60bd3506e2969b383f93da77 *gd79-12-28 t09 Tuning.flac
a822797c6030ab8d030ef226599f4189 *gd79-12-28 t10 Alabama Getaway.flac
7028d0d7b464939777f77a4a9ef347ec *gd79-12-28 t11 Greatest Story Ever Told.flac
d202e2fa27ea029dd76b41ed89674ef5 *gd79-12-28 t12 Terrapin Station.flac
5d0d70a538d4761dafb7dd4972a5749c *gd79-12-28 t13 Playin' In The Band.flac
35bcd87dcf2afb8c0fae084783894be6 *gd79-12-28 t14 Drums.flac
1b92ee408bcc7f9a61005dab56242550 *gd79-12-28 t15 Space.flac
e4d23767f7b20a9aa0be71957dd96af1 *gd79-12-28 t16 Uncle John's Band.flac
53dc6b48260579eca4a92d67942648fc *gd79-12-28 t17 I Need A Miracle.flac
bc56749132be15adc466a4b68b003c7e *gd79-12-28 t18 Bertha.flac
8199b59ff8f4eef9530d1fb39835e5be *gd79-12-28 t19 Good Lovin'.flac
85dd0d8de30a2faee57f100012e7b2e9 *gd79-12-28 t20 Casey Jones.flac
6c6f05d7fc895e57797bf1095d677f36 *gd79-12-28 t21 One More Saturday Night.flac
ffp
gd79-12-28 t01 Tuning.flac:6a8921c07afd97efbd749ce982a5ff7b
gd79-12-28 t02 Sugaree.flac:76e7114bd1182f35f562ef1476f49685
gd79-12-28 t03 Mama Tried.flac:37a272ee3ab997d361667207b766d12f
gd79-12-28 t04 Mexicali Blues.flac:615000b7f07bb7bb79b9be04650f5ae0
gd79-12-28 t05 Row Jimmy.flac:7a4188d819ce837e596d2b1d5edd049d
gd79-12-28 t06 It's All Over Now.flac:f014e941a046b0b6dd7d4af1d0057737
gd79-12-28 t07 High Time.flac:f080a7d736c05a351afd144adba92fb6
gd79-12-28 t08 The Music Never Stopped.flac:d07f9b21851e0b5848a7593013be9ae1
gd79-12-28 t09 Tuning.flac:8f2228659ad41785fd9b8fc9bb1acbfc
gd79-12-28 t10 Alabama Getaway.flac:83e1b6ada8f9ede517728b59a528dbf7
gd79-12-28 t11 Greatest Story Ever Told.flac:0902fcdacb9fcfb991bbbdebb22a6272
gd79-12-28 t12 Terrapin Station.flac:c1706b59674d3ca719d0d5f958cce041
gd79-12-28 t13 Playin' In The Band.flac:82b8a5dc3524b6ba8f35c71d84875318
gd79-12-28 t14 Drums.flac:fba109e178047786761dbbe31e9ba6b4
gd79-12-28 t15 Space.flac:116965f64039eb01ab3ffde2b273b97e
gd79-12-28 t16 Uncle John's Band.flac:b8f55b839fa95b8ab8535f18751e2d70
gd79-12-28 t17 I Need A Miracle.flac:fb0a7464719b837eba600bbcb66150bf
gd79-12-28 t18 Bertha.flac:71598bbcd34dc1ceb037be63447b4a67
gd79-12-28 t19 Good Lovin'.flac:cb914730d051d6b94eb3f37571271a86
gd79-12-28 t20 Casey Jones.flac:cf191e15ba7d1e3417ad3309df36d642
gd79-12-28 t21 One More Saturday Night.flac:5647e23bf1fa5761bef1b970d5adcd4c

Comments
Add Comment
Other Sources (comments)
SBD; transferred and seeded... (1) Recording by Steve Rolfe:... (0) sector boundary errors... (0) flac16; SBD > MR >... (1) flac16; Recording by... (0) flac16; Matrix by... (0) flac16;Recording... (0) flac16; Recorded By... (0) flac16; Recording... (0) flac16; Recording... (0)
Date User Comment