Browse Collections Artists Sources   Search Dates

Add Show    List Management    Help


Phish 11/10/89
Sigma Phi Society House, Hamilton College, Clinton, NY
Comments Add Comment    Source Collectors    Add to Collection    Add to Want List    History
Source # 140848 Other Sources
Entered by Matt Vernon
Checksums shn-md5 , st5 , ffp
Disc Counts 0 / 0
Media Size
Date Circulated
Date Added

01/28/2018
Source Summary flac16 44.1khz Sbd>?>cass>Soundforge6.0>cdwav>shn > flac(8) via Tome. Originally circulated Jan 2003. Added to database Jan 2018. 
Source Information - Download Text | Download Zip
Phish
11/10/89
Hamilton College, Clinton, NY

Sbd>?>cass>Soundforge6.0>cdwav>shn

set II
1. /Weekapaug (0:55)*
2. McGrupp
3. Fluffs Travels>
4. Sloth
5. Lizards
6, If I Only Had A Brain
7. Possum
8. Harpua
9. Highway To Hell
10. Take The A Train
11. Run Like An Antelope

*Weekapaug will need to be removed to fit on a 80min


Sbd>?>cass>Soundforge6.0>cdwav>shn

This is an OK source(multiple cass gens), but have been unable to find any other(1-10-03).
Bass level and pitch increased with SF.
Sbs verified with shntool

Tome 1/10/03

shn md5
839b24d4377ae205705b9ff0a8a6a8ea *ph89-11-10set2d1t01.shn
62ad13ecfa0193114a4176db9c20b289 *ph89-11-10set2d1t02.shn
820d89d6f025811583e31e65c78631ac *ph89-11-10set2d1t03.shn
45a0e4d395ed0c3c4015810d1ca8c06f *ph89-11-10set2d1t04.shn
f70d7e37eb24b96bd5682a116f646d8d *ph89-11-10set2d1t05.shn
a9050c3975ec9851ab6115873505bdc2 *ph89-11-10set2d1t06.shn
f8d4b4085821754c9294196ef80b3505 *ph89-11-10set2d1t07.shn
d8ffa8caf38c76fc1da1cf77b2f08460 *ph89-11-10set2d1t08.shn
bdea84977982d785e78f77500a5b6107 *ph89-11-10set2d1t09.shn
aecff2e836f2bf3c4e609a5209b870d8 *ph89-11-10set2d1t10.shn
2940c7ea93b72831126a4cfb2274c6a6 *ph89-11-10set2d1t11.shn

- - - - - material added by mfv Jan 2018 - - - - - - - - -

This source was shared ~Jan 2003 but never entered in the database and assigned a shnid.

shnid #11824 was missing this material and Tome (the source of the missing material) posted this comment at #11824.

Date         User Comment
06/25/2005 Tome I have the rest from McGrupp to Antelope, sbdmc>?>cass>shn, lmk if you want, [email protected]

Tome’s source was speed adjusted by studboyx and the speed adjusted source assigned shnid #109873.

For completeness, the original Tome material is assigned its own shnid  circa Jan 2018.

The Tome shn files were converted to flac(8) as that is the preferred lossless format as of Jan 2018.

shn-md5, st5 and ffp checksums allow others to confirm if their shn files match the Tome version.

shntool timing output shown below

    length     expanded size    cdr  WAVE problems  fmt   ratio  filename
     0:49.54        8770652 B   ---   --   ---xx    shn  0.5608  ph89-11-10set2d1t01.shn
     5:17.21       55968236 B   ---   --   ---xx    shn  0.6162  ph89-11-10set2d1t02.shn
     5:01.48       53209340 B   ---   --   ---xx    shn  0.6108  ph89-11-10set2d1t03.shn
     7:58.25       84378044 B   ---   --   ---xx    shn  0.6311  ph89-11-10set2d1t04.shn
    11:52.20      125643884 B   ---   --   ---xx    shn  0.6230  ph89-11-10set2d1t05.shn
     3:38.65       38608124 B   ---   --   ---xx    shn  0.6025  ph89-11-10set2d1t06.shn
     8:24.36       88990316 B   ---   --   ---xx    shn  0.6294  ph89-11-10set2d1t07.shn
    15:19.37      162198668 B   ---   --   ---xx    shn  0.6814  ph89-11-10set2d1t08.shn
     4:03.19       42909932 B   ---   --   ---xx    shn  0.7007  ph89-11-10set2d1t09.shn
     6:01.47       63790988 B   ---   --   ---xx    shn  0.6500  ph89-11-10set2d1t10.shn
    12:11.66      129103676 B   ---   --   ---xx    shn  0.6834  ph89-11-10set2d1t11.shn
    80:38.63      853571860 B                            0.6479  (11 files)


Show Checksums
shn-md5
839b24d4377ae205705b9ff0a8a6a8ea *ph89-11-10set2d1t01.shn
62ad13ecfa0193114a4176db9c20b289 *ph89-11-10set2d1t02.shn
820d89d6f025811583e31e65c78631ac *ph89-11-10set2d1t03.shn
45a0e4d395ed0c3c4015810d1ca8c06f *ph89-11-10set2d1t04.shn
d38a92b4fe6a0fbbc1ee758c1bfcf7bc *ph89-11-10set2d1t05.shn
a9050c3975ec9851ab6115873505bdc2 *ph89-11-10set2d1t06.shn
f8d4b4085821754c9294196ef80b3505 *ph89-11-10set2d1t07.shn
a9961e47b099d48dc584146b27eeae87 *ph89-11-10set2d1t08.shn
bdea84977982d785e78f77500a5b6107 *ph89-11-10set2d1t09.shn
aecff2e836f2bf3c4e609a5209b870d8 *ph89-11-10set2d1t10.shn
2940c7ea93b72831126a4cfb2274c6a6 *ph89-11-10set2d1t11.shn
st5
7652e72661b320082ac1174b258b0fd6 [shntool] ph89-11-10set2d1t01.shn
996b8ade3cdd72dcd50b67e287febc80 [shntool] ph89-11-10set2d1t02.shn
4a9f62c0a1db6ad121663ce571ed028d [shntool] ph89-11-10set2d1t03.shn
6b83533dc14e245511cbafd6ca37ce2b [shntool] ph89-11-10set2d1t04.shn
a85670ffdc7f006cc47981fc6fa4436b [shntool] ph89-11-10set2d1t05.shn
a536c89e37599af0539a47f6a6eeb415 [shntool] ph89-11-10set2d1t06.shn
2ff7b6c7c8293ab165c24e6ddc491986 [shntool] ph89-11-10set2d1t07.shn
898917ae1a46e77319f1adce88b56385 [shntool] ph89-11-10set2d1t08.shn
9d26144bf091da49b2e34ce689a8036c [shntool] ph89-11-10set2d1t09.shn
7d7708fe620eaa406d65c2b92b6b0e6d [shntool] ph89-11-10set2d1t10.shn
28c2b865c224a9ecc8aa8981a2662e39 [shntool] ph89-11-10set2d1t11.shn
ffp
ph89-11-10set2d1t01.flac:7652e72661b320082ac1174b258b0fd6
ph89-11-10set2d1t02.flac:996b8ade3cdd72dcd50b67e287febc80
ph89-11-10set2d1t03.flac:4a9f62c0a1db6ad121663ce571ed028d
ph89-11-10set2d1t04.flac:6b83533dc14e245511cbafd6ca37ce2b
ph89-11-10set2d1t05.flac:a85670ffdc7f006cc47981fc6fa4436b
ph89-11-10set2d1t06.flac:a536c89e37599af0539a47f6a6eeb415
ph89-11-10set2d1t07.flac:2ff7b6c7c8293ab165c24e6ddc491986
ph89-11-10set2d1t08.flac:898917ae1a46e77319f1adce88b56385
ph89-11-10set2d1t09.flac:9d26144bf091da49b2e34ce689a8036c
ph89-11-10set2d1t10.flac:7d7708fe620eaa406d65c2b92b6b0e6d
ph89-11-10set2d1t11.flac:28c2b865c224a9ecc8aa8981a2662e39

Comments
Add Comment
Other Sources (comments)
SBD > Cass/0 > Nakamichi... (2) Sbd > ? > cass >... (0)
Date User Comment