Browse Collections Artists Sources   Search Dates

Add Show    List Management    Help


Grateful Dead 03/27/87
Hartford Civic Center, Hartford, CT
Comments Add Comment    Source Collectors    Add to Collection    Add to Want List    History
Source # 140855 Other Sources
Entered by Matt Vernon
Checksums ffp , flac-md5
Disc Counts 0 / 0
Media Size
Date Circulated
Date Added
01/28/2018
01/28/2018
Source Summary flac24; Recording Info: Ultra Matrix SBD > Cassette Master (TDK MA-R90); Transfer Info: Cassette Master (Nakamichi CR-7A) > Tascam DA-3000 (DSF 1-bit/5.8 MHz) > KORG AudioGate 4 > Samplitude Pro X3 Suite > FLAC/24; All Transfers and Mastering By Charlie Miller 
  Archive
Source Information - Download Text | Download Zip
Grateful Dead - March 27, 1987
Hartford Civic Center - Hartford, CT

Recording Info:
Ultra Matrix SBD > Cassette Master (TDK MA-R90)

Transfer Info:
Cassette Master (Nakamichi CR-7A) > Tascam DA-3000 (DSF 1-bit/5.8 MHz) >
KORG AudioGate 4 > Samplitude Pro X3 Suite > FLAC/24
(1 Disc FLAC)

All Transfers and Mastering By Charlie Miller
[email protected]
January 28, 2018

Set 1:
01 - Tuning
02 - Alabama Getaway >
03 - Greatest Story Ever Told
04 - West L.A. Fadeaway
05 - Little Red Rooster
06 - Brown Eyed Women
07 - Beat It On Down The Line
08 - Tennessee Jed
09 - The Music Never Stopped

Set 2:
10 - Tuning
11 - Touch Of Grey >
12 - Samson And Delilah >
13 - Cumberland Blues
14 - Estimated Prophet >
15 - Eyes Of The World >
16 - Drums >
17 - Space >
18 - Uncle John's Band >
19 - Morning Dew

Encore:
20 - Encore Break
21 - Johnny B. Goode


SHNTOOL OUTPUT:
    length     expanded size    cdr  WAVE problems  fmt   ratio  filename
     1:24.220      48510728 B   cxx   --   ---xx   flac  0.6552  01 Tuning.flac
     4:42.450     162691262 B   cxx   --   ---xx   flac  0.6887  02 Alabama Getaway.flac
     5:00.987     173368838 B   cxx   --   ---xx   flac  0.6733  03 Greatest Story Ever Told.flac
     8:14.884     285053096 B   cxx   --   ---xx   flac  0.6688  04 West LA Fadeaway.flac
     9:09.696     316624706 B   cxx   --   ---xx   flac  0.6779  05 Little Red Rooster.flac
     6:25.331     221950496 B   cxx   --   ---xx   flac  0.6783  06 Brown Eyed Women.flac
     3:22.938     116892392 B   cxx   --   ---xx   flac  0.6897  07 Beat It On Down The Line.flac
     9:07.844     315558074 B   cxx   --   ---xx   flac  0.6766  08 Tennessee Jed.flac
     8:50.947     305825768 B   cxx   --   ---xx   flac  0.6787  09 The Music Never Stopped.flac
     0:36.195      20848334 B   cxx   --   ---xx   flac  0.6428  10 Tuning.flac
     6:03.020     209099648 B   cxx   --   ---xx   flac  0.6881  11 Touch Of Grey.flac
     8:01.956     277606670 B   cxx   --   ---xx   flac  0.6868  12 Samson And Delilah.flac
     5:30.634     190445234 B   cxx   --   ---xx   flac  0.6877  13 Cumberland Blues.flac
    10:12.200     352627334 B   cxx   --   ---xx   flac  0.6852  14 Estimated Prophet.flac
     8:24.596     290647190 B   cxx   --   ---xx   flac  0.6875  15 Eyes Of The World.flac
     9:28.487     327448406 B   cxx   --   ---xx   flac  0.6544  16 Drums.flac
     7:01.108     242558390 B   cxx   --   ---xx   flac  0.6446  17 Space.flac
     7:16.417     251376434 B   cxx   --   ---xx   flac  0.6824  18 Uncle John's Band.flac
    10:32.707     364439126 B   cxx   --   ---xx   flac  0.6682  19 Morning Dew.flac
     1:58.489      68249420 B   cxx   --   ---xx   flac  0.6593  20 Encore Break.flac
     5:18.934     183706202 B   cxx   --   ---xx   flac  0.6757  21 Johnny B Goode.flac
   136:44.040    4725527748 B                            0.6757  (21 files)


Show Checksums
ffp
01 Tuning.flac:b9e5a736ddb9a8727e2b35c9bb0f2abe
02 Alabama Getaway.flac:d8e12bb508a001f9b14423cebac4250c
03 Greatest Story Ever Told.flac:8854838e5cb222abbdf3be72d454ae33
04 West LA Fadeaway.flac:61c4914170d5d810a7418972dacf0473
05 Little Red Rooster.flac:0ddb86fb53bab1d0342e8f2a2ff0e8d3
06 Brown Eyed Women.flac:cb7bee38d9302f7cb79b73eb371b5b56
07 Beat It On Down The Line.flac:7a966673fc3b501106921c2fbfda76e8
08 Tennessee Jed.flac:db2b2e6e41f5af8f4310ed41a3ec6602
09 The Music Never Stopped.flac:c41988d2c13f74eb5a245b118f987d65
10 Tuning.flac:03cc2fa59d31700a7d7eace2414fc017
11 Touch Of Grey.flac:1ea7a4f655f2d1442c3ca40bba140f8d
12 Samson And Delilah.flac:85cba9e1953d6e1b7597f67260fbbd95
13 Cumberland Blues.flac:1d016739e878474bc4e6b46ea92cfdbc
14 Estimated Prophet.flac:a6ca2d3a4868ed89cd56a861acb77e29
15 Eyes Of The World.flac:e430867baa48daaa46f636adff852cf8
16 Drums.flac:118845d20a6c7d5373b2fca38cb0c48c
17 Space.flac:095bb3672866e0e64ee6becf7c4749f4
18 Uncle John's Band.flac:8606981ece67498c614ef4d9905d0c89
19 Morning Dew.flac:c3d14d4303156158ed36d4b9aabe1bde
20 Encore Break.flac:7bd3a76eab589bc0ec0cd18db98d08d0
21 Johnny B Goode.flac:b7c5beef5afc5b3b80fb351f3cc7e307
flac-md5
d6a88af4e972cfe96a889c08431635f7 *01 Tuning.flac
dd8c78c8afa8e782e738801d4840007e *02 Alabama Getaway.flac
2bcce24d3ccb18417f10fcfe386b5644 *03 Greatest Story Ever Told.flac
669acbd01c6d73362f23319ce2f5923e *04 West LA Fadeaway.flac
f69abaffcb545db00eda44aea275c3da *05 Little Red Rooster.flac
009558dc0d2e5fa7b19943c077f62aa6 *06 Brown Eyed Women.flac
bae47a83864eaf819a29724a31c7c078 *07 Beat It On Down The Line.flac
a6bab06ddc3c822a9ee0c4cd864db9eb *08 Tennessee Jed.flac
98ccec1326a5cb0ea60ee33dbd404549 *09 The Music Never Stopped.flac
63cb9c549091dbc18b427525bd8d324a *10 Tuning.flac
2cc05d01718ccc326347c391499a46fc *11 Touch Of Grey.flac
e0569309152faeece7d40247f5168d92 *12 Samson And Delilah.flac
bfe426864fcf22527c9ad1b4ef1eb2c3 *13 Cumberland Blues.flac
00c319f84df671bb0321c538b207bb3a *14 Estimated Prophet.flac
471588566fe31170dceeb9454edc0cd8 *15 Eyes Of The World.flac
eb090531756ef3cd619d3c81f52d7f64 *16 Drums.flac
1be87bfb94d8f41190993b5624877117 *17 Space.flac
ad0d607d9484c2cdcdc8704558965ff7 *18 Uncle John's Band.flac
e3dbd234265531428d20b9060668c042 *19 Morning Dew.flac
458f037d032f9a30501d0409efc469c1 *20 Encore Break.flac
a9a0647ea5678a8d451bbd351bb5d2e3 *21 Johnny B Goode.flac

Comments
Add Comment
Other Sources (comments)
Audience Master Cassette... (1) flac16; taper : Joe... (0) flac16; Recording... (0) flac16; Source: (2x)... (0) flac16; Recording... (0) flac24; Source: SBD... (0) flac24; source: (2)... (0) flac16; Recording... (0) flac16; Set 2, OTS... (0)
Date User Comment