Browse Collections Artists Sources   Search Dates

Add Show    List Management    Help


Grateful Dead 10/25/73
Dane County Coliseum, Madison, WI
Comments Add Comment    Source Collectors    Add to Collection    Add to Want List    History
Source # 140863 Other Sources
Entered by Matt Vernon
Checksums flac-md5 , ffp
Disc Counts 0 / 0
Media Size
Date Circulated
Date Added
01/30/2018
01/30/2018
Source Summary flac16; Partial Set 2 Source Info: Master 1/2 track Soundboard Reel @ 15ips (Nagra Reel to Reel) > PCM (14-bit)(Sony L-750ESX-HFB tape); Transfer Info: PCM (Sony SL-10)> Sony PCM-601ESD > Behringer Ultramatch Pro > Tascam DA-3000 (wav 16-bit/44.1k)> Adobe Audition 3.0 > TLH flac16 
  Archive
Source Information - Download Text | Download Zip
Grateful Dead
Dane County Coliseum
Madison, WI
Thursday October 25, 1973

Source Info:
Master 1/2 track Soundboard Reel @ 15ips (Nagra Reel to Reel) > PCM (14-bit)(Sony L-750ESX-HFB tape)

Transfer Info:
PCM (Sony SL-10)> Sony PCM-601ESD > Behringer Ultramatch Pro > Tascam DA-3000 (wav 16-bit/44.1k)> Adobe Audition 3.0 > TLH flac16

Notes:
- Thanks to Tim Dalton for the source PCM
- Thanks to Charlie Miller for the transfer

Mastered by Scott Clugston
January 30, 2018

2nd Set partial:
t01 - ....Dark Star space >
t02 - Eyes Of The World >
t03 - Stella Blue
t04 - Weather Report Suite Prelude >
      Part One >
      Let It Grow



    length     expanded size    cdr  WAVE problems  fmt   ratio  filename
     3:15.56       34529756 B   ---   --   ---xx   flac  0.4732  gd73-10-25 t01 Dark Star Space.flac
    15:52.61      168076316 B   ---   --   ---xx   flac  0.5264  gd73-10-25 t02 Eyes Of The World.flac
     8:49.07       93332108 B   ---   --   ---xx   flac  0.4303  gd73-10-25 t03 Stella Blue.flac
    16:44.16      177143276 B   ---   --   ---xx   flac  0.5178  gd73-10-25 t04 Weather Report Suite.flac
    44:41.65      473081456 B                            0.5003  (4 files)

No errors occured.


Show Checksums
flac-md5
65f793f8c2db00083089efcefcefd614 *gd73-10-25 t01 Dark Star Space.flac
27040b756af96c026f5fbfcbbcdf4b1c *gd73-10-25 t02 Eyes Of The World.flac
287fa7333d6f470344d571f7aff792ed *gd73-10-25 t03 Stella Blue.flac
4b2e7e0e5972fb52f59ba9dcd23c428a *gd73-10-25 t04 Weather Report Suite.flac
ffp
gd73-10-25 t01 Dark Star Space.flac:82363ac765b0164167d04a9c761e946f
gd73-10-25 t02 Eyes Of The World.flac:338095520f022c639b898b6f10a7148d
gd73-10-25 t03 Stella Blue.flac:2055d3ed7c83ad12766e864104a4ed8b
gd73-10-25 t04 Weather Report Suite.flac:bace6585f9022f88bcc737b6c2503d5a

Comments
Add Comment
Other Sources (comments)
SBD MR> DAT> Sound Forge>... (4) Partial set 2; SBD >... (0) Unsure if this is the "best... (0) SBD Master Reel > ? > DAT >... (0) flac16; Original... (1) flac16; MSR > D > CD... (0) flac16; Source:... (0)
Date User Comment