Browse Collections Artists Sources   Search Dates

Add Show    List Management    Help


Grateful Dead 05/21/93
Shoreline Amphitheatre, Mountain View, CA
Comments Add Comment    Source Collectors    Add to Collection    Add to Want List    History
Source # 140870 Other Sources
Entered by Matt Vernon
Checksums flac-md5 , ffp
Disc Counts 0 / 0
Media Size Compressed: 969.47 MB (1016565760 bytes)
Date Circulated
Date Added
01/31/2018
01/31/2018
Source Summary flac16; Recording Info: SBD > Cassette Master (TDK SA-X100); Transfer Info: Cassette Master (Nakamichi CR-7A) > Tascam DA-3000 (DSF 1-bit/5.8 MHz) > KORG AudioGate 4 > Samplitude Pro X3 Suite > FLAC/24; All Transfers and Mastering By Charlie Miller 
  Archive
Source Information - Download Text | Download Zip
Grateful Dead - May 21, 1993
Shoreline Amphitheatre - Mountain View, CA

Recording Info:
SBD > Cassette Master (TDK SA-X100)

Transfer Info:
Cassette Master (Nakamichi CR-7A) > Tascam DA-3000 (DSF 1-bit/5.8 MHz) >
KORG AudioGate 4 > Samplitude Pro X3 Suite > FLAC/24
(1 Disc FLAC)

All Transfers and Mastering By Charlie Miller
[email protected]
January 28, 2018

Notes:
-- Three sets of masters were used to make this show complete
-- This file set is 16 bit

Set 1:
01 - Tuning
02 - Let The Good Times Roll
03 - Feel Like A Stranger
04 - Friend Of The Devil
05 - Me And My Uncle >
06 - Big River
07 - West L.A. Fadeaway
08 - Eternity
09 - Liberty

Set 2:
10 - Tuning
11 - China Cat Sunflower >
12 - I Know You Rider
13 - Way To Go Home
14 - Estimated Prophet >
15 - He's Gone >
16 - Drums >
17 - Space >
18 - All Along The Watchtower >
19 - Morning Dew

Encore:
20 - Tuning
21 - Baba O'Riley >
22 - Tomorrow Never Knows


SHNTOOL OUTPUT:
    length     expanded size    cdr  WAVE problems  fmt   ratio  filename
     0:20.58        3664460 B   ---   --   ---xx   flac  0.4579  01 Tuning.flac
     4:11.18       44318780 B   ---   --   ---xx   flac  0.5877  02 Let The Good Times Roll.flac
     8:00.34       84752012 B   ---   --   ---xx   flac  0.6037  03 Feel Like A Stranger.flac
    10:06.13      106929020 B   ---   --   ---xx   flac  0.5590  04 Friend Of The Devil.flac
     2:45.51       29225996 B   ---   --   ---xx   flac  0.5964  05 Me And My Uncle.flac
     6:35.24       69734492 B   ---   --   ---xx   flac  0.5758  06 Big River.flac
     9:20.57       98918108 B   ---   --   ---xx   flac  0.5790  07 West LA Fadeaway.flac
    10:24.68      110233580 B   ---   --   ---xx   flac  0.5544  08 Eternity.flac
     6:16.05       66338204 B   ---   --   ---xx   flac  0.6158  09 Liberty.flac
     2:00.30       21238604 B   ---   --   ---xx   flac  0.3321  10 Tuning.flac
     7:38.60       80932364 B   ---   --   ---xx   flac  0.5984  11 China Cat Sunflower.flac
     6:53.46       72961436 B   ---   --   ---xx   flac  0.5889  12 I Know You Rider.flac
     8:16.53       87619100 B   ---   --   ---xx   flac  0.6163  13 Way To Go Home.flac
    13:18.23      140821340 B   ---   --   ---xx   flac  0.5907  14 Estimated Prophet.flac
    14:04.42      148980428 B   ---   --   ---xx   flac  0.5645  15 He's Gone.flac
    15:28.02      163703948 B   ---   --   ---xx   flac  0.5354  16 Drums.flac
    12:28.21      131996636 B   ---   --   ---xx   flac  0.5085  17 Space.flac
     7:25.21       78547436 B   ---   --   ---xx   flac  0.6085  18 All Along The Watchtower.flac
    12:36.51      133478396 B   ---   --   ---xx   flac  0.5727  19 Morning Dew.flac
     0:44.29        7829852 B   ---   --   ---xx   flac  0.3787  20 Tuning.flac
     3:36.05       38114204 B   ---   --   ---xx   flac  0.6373  21 Baba O'Riley.flac
     5:38.03       59630300 B   ---   --   ---xx   flac  0.5875  22 Tomorrow Never Knows.flac
   168:10.39     1779968696 B                            0.5711  (22 files)




Show Checksums
flac-md5
f65fb80b8d628ec33271be4636430e1e *01 Tuning.flac
d60ad1ebd81603ec0dc4b47ba362edaa *02 Let The Good Times Roll.flac
ca38bc1804abbd39f1bcf72281baeb3c *03 Feel Like A Stranger.flac
905a5e2cef0553c69d8d939c06400806 *04 Friend Of The Devil.flac
361ce4589fbbbea310a254bf789383b4 *05 Me And My Uncle.flac
20c458e2d4f0012a2497ca2c833a6500 *06 Big River.flac
e2a10b928aa2fffda09cdd9aa2974a26 *07 West LA Fadeaway.flac
db5b4fb10afc47475f0df781f392a298 *08 Eternity.flac
974ae8464e1c9172c9c40ccacf08a390 *09 Liberty.flac
f78467f97dcb54d2680e717a447e8c4d *10 Tuning.flac
990d65a10a848732d457c3d7ebbe24ea *11 China Cat Sunflower.flac
8fbec4082e7a63cba839d539a918c9a6 *12 I Know You Rider.flac
8ba0ca837d7f3c3b3b694f45e4a7bef2 *13 Way To Go Home.flac
7e5147ff616fc02dc8cee3294d2776a1 *14 Estimated Prophet.flac
97dd6914daaa94c348cc4223bb7f2833 *15 He's Gone.flac
682ceb012c7f86af02607ae518c7d56d *16 Drums.flac
5101054978a5ab5192c27bedec784353 *17 Space.flac
270afe017b5870a46104249073e912c1 *18 All Along The Watchtower.flac
6a38a82922bb4dd880fd1ba4e580f29a *19 Morning Dew.flac
528b461a58cb51f3491e2b6640e5f791 *20 Tuning.flac
73fb5b0a8e76c54eac42db6e96b9b60d *21 Baba O'Riley.flac
f408287d3bee5b5ab6850baad060aee9 *22 Tomorrow Never Knows.flac
ffp
01 Tuning.flac:0903b45a4e9e13a76809921d361aa4f1
02 Let The Good Times Roll.flac:a49484dafbfd6f47b79a1c4641a58d67
03 Feel Like A Stranger.flac:65fc5368d30f29131424e05a2cd33229
04 Friend Of The Devil.flac:6f7f107f5f646c15bd808503c43f4de5
05 Me And My Uncle.flac:c1a9e3d03116b0976bd18fd924e97a53
06 Big River.flac:1d760252455a1e44532756781705ca7e
07 West LA Fadeaway.flac:24569b0ef18a4db5067db9bd816d98d6
08 Eternity.flac:e9e45afa2e430d58064b2f756e3e0a58
09 Liberty.flac:7a104df025cb3ce2634fef740216dfd2
10 Tuning.flac:8dfff681835ca7ca54f49756fa1772fc
11 China Cat Sunflower.flac:4ecbead1498b05035d12c8971cb66e7e
12 I Know You Rider.flac:d0f644371435e63393ae0a830f1ede30
13 Way To Go Home.flac:b3709b13fd0a0ee4167e560aeaad5af2
14 Estimated Prophet.flac:b128e99cf84c50ae6fc55c05ef67261e
15 He's Gone.flac:cbc5955669c4528ecc0a87232c0dfc01
16 Drums.flac:1f247f7f10d280dab6d7bf57b0692161
17 Space.flac:36da531d01424648a01e84e5cb6b174e
18 All Along The Watchtower.flac:f46f74312c91e0b605eb30831854f766
19 Morning Dew.flac:d0d40df00dbd89202fe7704d2172db8c
20 Tuning.flac:b89e788b5c797c32db6dec6a9475b82e
21 Baba O'Riley.flac:88876faf04c810df79e8562abc3b14c1
22 Tomorrow Never Knows.flac:ae9cdaa2d367a1432ea7d1ac69621903

Comments
Add Comment
Other Sources (comments)
AUD(Schoeps CMC... (0) flac16; Set 2 SBD ->... (0) flac16/48kHz;... (0) flac16/48kHz; Set 2... (1) flac24; Recording... (0)
Date User Comment