Browse Collections Artists Sources   Search Dates

Add Show    List Management    Help


Grateful Dead 03/27/87
Hartford Civic Center, Hartford, CT
Comments Add Comment    Source Collectors    Add to Collection    Add to Want List    History
Source # 140871 Other Sources
Entered by Matt Vernon
Checksums flac-md5 , ffp
Disc Counts 0 / 0
Media Size Compressed: 833.23 MB (873709568 bytes)
Date Circulated
Date Added
01/31/2018
01/31/2018
Source Summary flac16; Recording Info: Ultra Matrix SBD > Cassette Master (TDK MA-R90); Transfer Info: Cassette Master (Nakamichi CR-7A) > Tascam DA-3000 (DSF 1-bit/5.8 MHz) > KORG AudioGate 4 > Samplitude Pro X3 Suite > FLAC/24; All Transfers and Mastering By Charlie Miller 
  Archive
Source Information - Download Text | Download Zip
Grateful Dead - March 27, 1987
Hartford Civic Center - Hartford, CT

Recording Info:
Ultra Matrix SBD > Cassette Master (TDK MA-R90)

Transfer Info:
Cassette Master (Nakamichi CR-7A) > Tascam DA-3000 (DSF 1-bit/5.8 MHz) >
KORG AudioGate 4 > Samplitude Pro X3 Suite > FLAC/24
(1 Disc FLAC)

All Transfers and Mastering By Charlie Miller
[email protected]
January 28, 2018

Notes:
-- This file set is 16 bit

Set 1:
01 - Tuning
02 - Alabama Getaway >
03 - Greatest Story Ever Told
04 - West L.A. Fadeaway
05 - Little Red Rooster
06 - Brown Eyed Women
07 - Beat It On Down The Line
08 - Tennessee Jed
09 - The Music Never Stopped

Set 2:
10 - Tuning
11 - Touch Of Grey >
12 - Samson And Delilah >
13 - Cumberland Blues
14 - Estimated Prophet >
15 - Eyes Of The World >
16 - Drums >
17 - Space >
18 - Uncle John's Band >
19 - Morning Dew

Encore:
20 - Encore Break
21 - Johnny B. Goode


SHNTOOL OUTPUT:
    length     expanded size    cdr  WAVE problems  fmt   ratio  filename
     1:24.16       14855276 B   ---   --   ---xx   flac  0.5419  01 Tuning.flac
     4:42.34       49824812 B   ---   --   ---xx   flac  0.6405  02 Alabama Getaway.flac
     5:00.74       53094092 B   ---   --   ---xx   flac  0.6014  03 Greatest Story Ever Told.flac
     8:14.66       87296876 B   ---   --   ---xx   flac  0.5896  04 West LA Fadeaway.flac
     9:09.52       96965948 B   ---   --   ---xx   flac  0.6009  05 Little Red Rooster.flac
     6:25.25       67972844 B   ---   --   ---xx   flac  0.6093  06 Brown Eyed Women.flac
     3:22.70       35797484 B   ---   --   ---xx   flac  0.6463  07 Beat It On Down The Line.flac
     9:07.64       96641372 B   ---   --   ---xx   flac  0.6079  08 Tennessee Jed.flac
     8:50.71       93659036 B   ---   --   ---xx   flac  0.6228  09 The Music Never Stopped.flac
     0:36.14        6383372 B   ---   --   ---xx   flac  0.5042  10 Tuning.flac
     6:03.02       64037948 B   ---   --   ---xx   flac  0.6373  11 Touch Of Grey.flac
     8:01.72       85017788 B   ---   --   ---xx   flac  0.6381  12 Samson And Delilah.flac
     5:30.47       58322588 B   ---   --   ---xx   flac  0.6322  13 Cumberland Blues.flac
    10:12.15      107992124 B   ---   --   ---xx   flac  0.6256  14 Estimated Prophet.flac
     8:24.45       89011484 B   ---   --   ---xx   flac  0.6323  15 Eyes Of The World.flac
     9:28.36      100279916 B   ---   --   ---xx   flac  0.5482  16 Drums.flac
     7:01.08       74283260 B   ---   --   ---xx   flac  0.4997  17 Space.flac
     7:16.32       76985708 B   ---   --   ---xx   flac  0.6211  18 Uncle John's Band.flac
    10:32.53      111609500 B   ---   --   ---xx   flac  0.5824  19 Morning Dew.flac
     1:58.36       20899916 B   ---   --   ---xx   flac  0.5621  20 Encore Break.flac
     5:18.71       56262236 B   ---   --   ---xx   flac  0.6175  21 Johnny B Goode.flac
   136:44.03     1447193580 B                            0.6037  (21 files)



Show Checksums
flac-md5
2d33c289b6ffde1d36f3ce68683ead58 *01 Tuning.flac
6df86ee1c3a9d582e38066d5ead20b32 *02 Alabama Getaway.flac
3b521369a4a24650d9b6780e981deab6 *03 Greatest Story Ever Told.flac
4b58582ba3d850d396f9d2697e024b8d *04 West LA Fadeaway.flac
864a788e12b43f87f42402b7456b99f3 *05 Little Red Rooster.flac
c655d22a03ce8fdf92b93e57a135b786 *06 Brown Eyed Women.flac
24a17d6b83ea36ced876d496dbd57efb *07 Beat It On Down The Line.flac
2fdf11a3435e40ba5b76683a83c6ffc4 *08 Tennessee Jed.flac
6a5b0a5e57471f641504a8fcd642765e *09 The Music Never Stopped.flac
1a0912b48790198a2c170163721a57cb *10 Tuning.flac
ff6ea919e02bfaaf458d31ca10e93341 *11 Touch Of Grey.flac
13073348c81359da5e34eb4060aeccad *12 Samson And Delilah.flac
0423fd4f2ca7093e7e0e1deceda0a9f3 *13 Cumberland Blues.flac
371718bcc869d9911d7eecec1091a59c *14 Estimated Prophet.flac
f86ae557a4a18179120760a4ab826941 *15 Eyes Of The World.flac
04c33a4894a7464f6835c6ceebc5ef5c *16 Drums.flac
2bc87961ab0018570c158d5849d5f56a *17 Space.flac
92114432053b2bb4bfa9f216ac582fb8 *18 Uncle John's Band.flac
de3e664856bc20c31e4991865877977e *19 Morning Dew.flac
6a3e9126b0d557085c8a4ff387a34803 *20 Encore Break.flac
a4d8cb3d1f86ec18c76cd7a6d4603b71 *21 Johnny B Goode.flac
ffp
01 Tuning.flac:5860fc4e295837dd8b76bc54e5c39f0f
02 Alabama Getaway.flac:8ae0f589d29355420251543d4053f15d
03 Greatest Story Ever Told.flac:0d2e2da00fa898b4cbedb072f15af34f
04 West LA Fadeaway.flac:7198a6000a9647a86080e7022ae2ddd3
05 Little Red Rooster.flac:133f1ef70b0c283191ac654835706857
06 Brown Eyed Women.flac:39ab5358b321cae3383a699e76006e97
07 Beat It On Down The Line.flac:5cd5ebff4b14939cba126e1c475da1c1
08 Tennessee Jed.flac:30b6c84901edb85c72252dcfe6375208
09 The Music Never Stopped.flac:4e8dbd46e237ad796dddc7929e4ca10c
10 Tuning.flac:e0fc68d2d47ea7538ac1231e4e11e62c
11 Touch Of Grey.flac:808f20a41347f4d80e26e9bcb68f10fb
12 Samson And Delilah.flac:f5b21375e57ea691c33ad38735c530cd
13 Cumberland Blues.flac:1fb8c810c932a67480a49648daf4cbbd
14 Estimated Prophet.flac:85e2c40e80759b37ccf9c2d18141fd27
15 Eyes Of The World.flac:6a0552f394da603605477dc9b2fd4d3a
16 Drums.flac:d1e6497b9b03d82d769a20107d6c7b69
17 Space.flac:2539d6648bce67dbb3fb82f55f20acd7
18 Uncle John's Band.flac:c1b0dda13ac06466645ae77a17b1acc6
19 Morning Dew.flac:2cc12d11648b2ba212659e67347a6840
20 Encore Break.flac:b4b565a9ba44528254a5eb9890c020bf
21 Johnny B Goode.flac:161385c832311ab3ef02694ff1779ea5

Comments
Add Comment
Other Sources (comments)
Audience Master Cassette... (1) flac16; taper : Joe... (0) flac16; Recording... (0) flac16; Source: (2x)... (0) flac16; Recording... (0) flac24; Source: SBD... (0) flac24; source: (2)... (0) flac24; Recording... (0) flac16; Set 2, OTS... (0)
Date User Comment