Browse Collections Artists Sources   Search Dates

Add Show    List Management    Help


Grateful Dead 04/09/87
UIC Pavilion, Chicago, IL
Comments Add Comment    Source Collectors    Add to Collection    Add to Want List    History
Source # 140872 Other Sources
Entered by Matt Vernon
Checksums ffp , flac-md5
Disc Counts 0 / 0
Media Size
Date Circulated
Date Added
01/31/2018
01/31/2018
Source Summary flac24; Recording Info: Ultra Matrix SBD > Cassette Master (TDK MA-R90); Transfer Info: Cassette Master (Nakamichi CR-7A) > Tascam DA-3000 (DSF 1-bit/5.8 MHz) > KORG AudioGate 4 > Samplitude Pro X3 Suite > FLAC/24; All Transfers and Mastering By Charlie Miller 
  Archive
Source Information - Download Text | Download Zip
Grateful Dead - April 9, 1987
UIC Pavilion - Chicago, IL
University of Illinois

Recording Info:
Ultra Matrix SBD > Cassette Master (TDK MA-R90)

Transfer Info:
Cassette Master (Nakamichi CR-7A) > Tascam DA-3000 (DSF 1-bit/5.8 MHz) >
KORG AudioGate 4 > Samplitude Pro X3 Suite > FLAC/24
(1 Disc FLAC)

All Transfers and Mastering By Charlie Miller
[email protected]
January 29, 2018

Set 1:
01 - Tuning
02 - Greatest Story Ever Told >
03 - Promised Land
04 - When Push Comes To Shove
05 - Never Trust A Woman >
06 - El Paso
07 - Row Jimmy
08 - My Brother Esau
09 - Far From Me
10 - Deal

Set 2:
11 - Tuning
12 - Scarlet Begonias >
13 - Fire On The Mountain
14 - Playing In The Band >
15 - Uncle John's Band >
16 - Drums >
17 - Space >
18 - China Doll >
19 - Playing In The Band Tease >
20 - Goin' Down The Road Feeling Bad >
21 - Sugar Magnolia

Encore:
22 - Encore Break
23 - U.S. Blues


SHNTOOL OUTPUT:
   length     expanded size    cdr  WAVE problems  fmt   ratio  filename
    2:03.915      71374802 B   cxx   --   ---xx   flac  0.6818  01 Tuning.flac
    3:57.038     136533980 B   cxx   --   ---xx   flac  0.7043  02 Greatest Story Ever Told.flac
    5:07.175     176933132 B   cxx   --   ---xx   flac  0.7006  03 Promised Land.flac
    5:10.987     179128370 B   cxx   --   ---xx   flac  0.7003  04 When Push Comes To Shove.flac
    5:07.113     176896976 B   cxx   --   ---xx   flac  0.6898  05 Never Trust A Woman.flac
    5:44.546     198458690 B   cxx   --   ---xx   flac  0.6969  06 El Paso.flac
   10:47.057     372704822 B   cxx   --   ---xx   flac  0.6936  07 Row Jimmy.flac
    5:47.582     200207354 B   cxx   --   ---xx   flac  0.6983  08 My Brother Esau.flac
    4:22.534     151219754 B   cxx   --   ---xx   flac  0.7041  09 Far From Me.flac
    6:49.163     235678202 B   cxx   --   ---xx   flac  0.7038  10 Deal.flac
    1:01.691      35534168 B   cxx   --   ---xx   flac  0.6507  11 Tuning.flac
    8:32.202     295028186 B   cxx   --   ---xx   flac  0.6750  12 Scarlet Begonias.flac
   10:48.155     373337042 B   cxx   --   ---xx   flac  0.6717  13 Fire On The Mountain.flac
    8:33.588     295826792 B   cxx   --   ---xx   flac  0.6824  14 Playing In The Band.flac
    7:40.117     265027652 B   cxx   --   ---xx   flac  0.6708  15 Uncle John's Band.flac
    9:40.309     334258010 B   cxx   --   ---xx   flac  0.6481  16 Drums.flac
    5:42.410     197228012 B   cxx   --   ---xx   flac  0.6673  17 Space.flac
    6:05.677     210629888 B   cxx   --   ---xx   flac  0.6847  18 China Doll.flac
    0:30.464      17547524 B   cxx   --   ---xx   flac  0.6819  19 Playing Jam.flac
    6:01.955     208486010 B   cxx   --   ---xx   flac  0.6928  20 Goin' Down The Road Feeling Bad.flac
    8:09.129     281738192 B   cxx   --   ---xx   flac  0.6859  21 Sugar Magnolia.flac
    2:09.499      74591264 B   cxx   --   ---xx   flac  0.6654  22 Encore Break.flac
    6:39.226     229954442 B   cxx   --   ---xx   flac  0.6822  23 US Blues.flac
  136:31.532    4718323264 B                            0.6838  (23 files)


Show Checksums
ffp
01 Tuning.flac:8bc14627e7c40bd48e49eccaacd24369
02 Greatest Story Ever Told.flac:5b577cb2d80174de5f058c27815cd6e3
03 Promised Land.flac:35d18df8f3b53e8606feec18685e7b6d
04 When Push Comes To Shove.flac:674a3f7397e22c8a98bd9af11e3f9f75
05 Never Trust A Woman.flac:77aee1494c5fcef9537e707350d5aa8b
06 El Paso.flac:f4e582ba4e7d3d938823cebf8e3ebab5
07 Row Jimmy.flac:80427520b6d02c8fe609486c060da898
08 My Brother Esau.flac:00e8d5782ff975714bb435ff873ec0d2
09 Far From Me.flac:076df804dec87155a939482512f156a7
10 Deal.flac:44ed2cdb688df06b843035c11f057b7a
11 Tuning.flac:3b3935b9ac7a08c53ede2a773c086a61
12 Scarlet Begonias.flac:e854e213a48f2c431b673a21fa2f1950
13 Fire On The Mountain.flac:371fa98246ac53fdd80682eaafbcbad5
14 Playing In The Band.flac:a3b0fbf9fefdb4e066ae73ac4c4886ae
15 Uncle John's Band.flac:02888b6eabb22ae7d5bd8f0383135da6
16 Drums.flac:7a97c774a3bf6bf089808d12ba2233f8
17 Space.flac:0f384c743301f3f635fbaaa2bf8b4b8a
18 China Doll.flac:90f819f8ccc61e4cf2ade29b250fad47
19 Playing Jam.flac:0fd241977810b3eca38db20e4e53a88d
20 Goin' Down The Road Feeling Bad.flac:f3a867f78433fc419502a768c257d62f
21 Sugar Magnolia.flac:7207ce4a552d0438c7548fe203bbfaed
22 Encore Break.flac:6a56ef4ae0422f2a849ebfef2b0d3e74
23 US Blues.flac:fd4ac03a6637547d7f97517543103d02
flac-md5
ef07834196d912016d315cdd16c2f167 *01 Tuning.flac
7ac1439eb807d5a536c9f6c3fb7f05bf *02 Greatest Story Ever Told.flac
b79d98333c0bf6c4e1dab219b116f0ae *03 Promised Land.flac
cb621af82a2c25ae9e44845787fb1586 *04 When Push Comes To Shove.flac
89cb3263c4434d5f61e309eb9c89589d *05 Never Trust A Woman.flac
8b82e407016021027cd503e4a30d0311 *06 El Paso.flac
65952c5fe3e33de971efa709479df987 *07 Row Jimmy.flac
1f8d4f81463a08613678a11fe4510b1a *08 My Brother Esau.flac
0c3d3f0db5dbdd42a34ed84208029b53 *09 Far From Me.flac
71095eacef8fe92a1c540c12017ae024 *10 Deal.flac
1e376c91786bf95397ff0102b0338c76 *11 Tuning.flac
3955bb6b72df9b7a978bf0388bed8d01 *12 Scarlet Begonias.flac
70dadf7cc17daa1767497f09f2d671b2 *13 Fire On The Mountain.flac
b004ea405863ed187635e03980de1d96 *14 Playing In The Band.flac
b0d513911c1cd7fdef54b6f3355e3c9c *15 Uncle John's Band.flac
bebeeaec9351fba3777a2429acf99753 *16 Drums.flac
b32cc980f25936235e4535696015c06f *17 Space.flac
b329b80e5cf93411a14b11c65fb331fd *18 China Doll.flac
9f18f90fb65ed5884fab1e843b300f2e *19 Playing Jam.flac
e8c7f95062ee412dbfc3cfb16c929f60 *20 Goin' Down The Road Feeling Bad.flac
3b425fef8f3161b22c6b97aaef07a6c5 *21 Sugar Magnolia.flac
78f4c6085a21da3f1a1a507c5dd2f0f7 *22 Encore Break.flac
442237153ebe00db9f80769acf7e903e *23 US Blues.flac

Comments
Add Comment
Other Sources (comments)
Source: Audience cassette... (0) Shntool fix of original (0) FOB-AUD>MC>DAT>CDR; Schoeps... (0) flac16; Recording... (0) flac16; OTS AUD:... (0) flac16; Source: 2... (0) flac16; Recording... (0)
Date User Comment
01/31/2018 [email protected] I forgot to mention that two sets of masters were used to make this show complete