Browse Collections Artists Sources   Search Dates

Add Show    List Management    Help


Grateful Dead 04/10/87
UIC Pavilion, Chicago, IL
Comments Add Comment    Source Collectors    Add to Collection    Add to Want List    History
Source # 140874 Other Sources
Entered by Matt Vernon
Checksums ffp , flac-md5
Disc Counts 0 / 0
Media Size
Date Circulated
Date Added
01/31/2018
01/31/2018
Source Summary flac24; Recording Info: Ultra Matrix SBD > Cassette Master (TDK MA-R90); Transfer Info: Cassette Master (Nakamichi CR-7A) > Tascam DA-3000 (DSF 1-bit/5.8 MHz) > KORG AudioGate 4 > Samplitude Pro X3 Suite > FLAC/24; All Transfers and Mastering By Charlie Miller 
  Archive
Source Information - Download Text | Download Zip
Grateful Dead - April 10, 1987
UIC Pavilion - Chicago, IL

Recording Info:
Ultra Matrix SBD > Cassette Master (TDK MA-R90)

Transfer Info:
Cassette Master (Nakamichi CR-7A) > Tascam DA-3000 (DSF 1-bit/5.8 MHz) >
KORG AudioGate 4 > Samplitude Pro X3 Suite > FLAC/24
(1 Disc FLAC)

All Transfers and Mastering By Charlie Miller
[email protected]
January 31, 2018

Set 1:
01 - Tuning
02 - Shakedown Street
03 - Little Red Rooster
04 - Candyman
05 - Me And My Uncle >
06 - Mexicali Blues
07 - Brown Eyed Women
08 - Cassidy >
09 - Don't Ease Me In

Set 2:
10 - Tuning
11 - Iko Iko >
12 - Looks Like Rain
13 - Box Of Rain >
14 - He's Gone >
15 - Drums >
16 - Space >
17 - The Other One >
18 - Black Peter >
19 - Around And Around >
20 - Turn On Your Lovelight

Encore:
21 - Encore Break
22 - It's All Over Now, Baby Blue


SHNTOOL OUTPUT:
    length     expanded size    cdr  WAVE problems  fmt   ratio  filename
     0:55.331      31870940 B   cxx   --   ---xx   flac  0.6703  01 Tuning.flac
    10:06.353     349259462 B   cxx   --   ---xx   flac  0.7061  02 Shakedown Street.flac
     9:32.638     329839496 B   cxx   --   ---xx   flac  0.6922  03 Little Red Rooster.flac
     8:59.939     311004896 B   cxx   --   ---xx   flac  0.6901  04 Candyman.flac
     2:55.568     101127410 B   cxx   --   ---xx   flac  0.7084  05 Me And My Uncle.flac
     6:31.869     225716720 B   cxx   --   ---xx   flac  0.6948  06 Mexicali Blues.flac
     4:52.158     168282872 B   cxx   --   ---xx   flac  0.7048  07 Brown Eyed Women.flac
     6:18.762     218167058 B   cxx   --   ---xx   flac  0.7045  08 Cassidy.flac
     3:43.242     128587640 B   cxx   --   ---xx   flac  0.7084  09 Don't Ease Me In.flac
     0:42.567      24518570 B   cxx   --   ---xx   flac  0.6599  10 Tuning.flac
     6:04.788     210118178 B   cxx   --   ---xx   flac  0.7056  11 Iko Iko.flac
     8:26.398     291685016 B   cxx   --   ---xx   flac  0.6971  12 Looks Like Rain.flac
     5:06.880     176762990 B   cxx   --   ---xx   flac  0.7099  13 Box Of Rain.flac
    11:04.126     382536446 B   cxx   --   ---xx   flac  0.6988  14 He's Gone.flac
    11:33.075     399211496 B   cxx   --   ---xx   flac  0.6673  15 Drums.flac
     7:38.308     263985524 B   cxx   --   ---xx   flac  0.6623  16 Space.flac
     5:36.711     193945616 B   cxx   --   ---xx   flac  0.6869  17 The Other One.flac
     8:33.956     296038436 B   cxx   --   ---xx   flac  0.6963  18 Black Peter.flac
     3:35.273     123997544 B   cxx   --   ---xx   flac  0.7104  19 Around And Around.flac
     4:58.494     171932852 B   cxx   --   ---xx   flac  0.7083  20 Turn On Your Lovelight.flac
     2:22.807      82256876 B   cxx   --   ---xx   flac  0.6928  21 Encore Break.flac
     8:22.140     289232546 B   cxx   --   ---xx   flac  0.6945  22 It's All Over Now, Baby Blue.flac
   138:01.385    4770078584 B                            0.6943  (22 files)


Show Checksums
ffp
01 Tuning.flac:e57a091c5de7e1dbd9c0ac5ab6a8e305
02 Shakedown Street.flac:5cb0dc269742073e82232ee4ab6906a0
03 Little Red Rooster.flac:630decc2f14678dafc6e234713825789
04 Candyman.flac:09f3383f5838c39b1be83a4e3afa10bd
05 Me And My Uncle.flac:3827439175f1ada5643fd8a310ecf0d4
06 Mexicali Blues.flac:8751aa75484543fc838d5fa9cafcad8f
07 Brown Eyed Women.flac:19b1c542e42f961ba6d4fd0759d78c75
08 Cassidy.flac:a358176e4294a57e0aff5ae81df3ddfe
09 Don't Ease Me In.flac:4e9d5e392af156f2be393d445ebb83e2
10 Tuning.flac:f95d0ceeb7774c54dc4b025d0108f091
11 Iko Iko.flac:8ece343fde2156ab31f07c8bbdf10a83
12 Looks Like Rain.flac:4f47eaf17888c8668514179de65ba1cc
13 Box Of Rain.flac:2cc2832fca56c775ab27d3ef191cc23c
14 He's Gone.flac:95839ca5f31bfb7438bbc29c284aea10
15 Drums.flac:18082a35e78090c71ccec6be6622a7da
16 Space.flac:85f91b9740734bf466272308f51d54cd
17 The Other One.flac:d5a9a15edab382fb410b94b9a7e702a6
18 Black Peter.flac:f0753d8173e8084f27b245fb659c7649
19 Around And Around.flac:b002041e9fab8702eee50eb060c8ca93
20 Turn On Your Lovelight.flac:78dce15ee697d5dd99329de6afb7e572
21 Encore Break.flac:ee118136f4dc9e77386cb147216283b2
22 It's All Over Now, Baby Blue.flac:f6816924fd96a08c082de0fb1f90cf4f
flac-md5
803dcfe938a501cd8aebd25dee96ef0c *01 Tuning.flac
c39153e520dd0a6f012d0b4bbe2dfde0 *02 Shakedown Street.flac
71985abbf993f1631bfab08a0810bc99 *03 Little Red Rooster.flac
56e291af3d1e1d8c39aae902485ac4d3 *04 Candyman.flac
e74b528b0dbb06a287a7fafd8944ea74 *05 Me And My Uncle.flac
74510f9717883c9307f3b6d333bdd53b *06 Mexicali Blues.flac
9268f65d5d4f0455b2a93fb3323e18a6 *07 Brown Eyed Women.flac
1e1ba0d43ccb0018dbfacd5de2558172 *08 Cassidy.flac
f0598016c2f20bbabd44cb79f823b888 *09 Don't Ease Me In.flac
4ce57e95be99349fecb5ececca72b3ca *10 Tuning.flac
3859972fadd1d86c6d868e3ee7721c9f *11 Iko Iko.flac
1b0e37cf3536dade6d72a6eb95560c64 *12 Looks Like Rain.flac
ba74199315e32ef7c794f3e6d6781cf1 *13 Box Of Rain.flac
465ea970beefa0915f361352cf727555 *14 He's Gone.flac
42fcbe341eef46741b9c3716aaca3227 *15 Drums.flac
a4e25a2161608938d9ad114143a51eb4 *16 Space.flac
82ee7472907009a8d6be966cdae4b6cc *17 The Other One.flac
214ab9168206e2a66b99c5e2ad929078 *18 Black Peter.flac
ea6d6a21c9fe7e78a5a3053a574ec250 *19 Around And Around.flac
f68d1262613bf69fdd79bfd1eeaef4a6 *20 Turn On Your Lovelight.flac
967d1540b891c58eb8a740c4248a7364 *21 Encore Break.flac
ba046764a2494aaa697ba14146c47eff *22 It's All Over Now, Baby Blue.flac

Comments
Add Comment
Other Sources (comments)
Schoeps CMC-441 Hyper... (0) Source: Audience Cassette... (1) flac16; OTS AUD:... (0) flac16; Source: SBD... (0) flac16; Recorded by... (1) flac16; Source: 2... (0) flac16; Recording... (0) flac16; Recording... (0)
Date User Comment