Browse Collections Artists Sources   Search Dates

Add Show    List Management    Help


Grateful Dead 06/22/73
P.N.E. Coliseum, Vancouver, BC
Comments Add Comment    Source Collectors    Add to Collection    Add to Want List    History
Source # 140892 Other Sources
Entered by Matt Vernon
Checksums ffp , flac-md5
Disc Counts 0 / 0
Media Size
Date Circulated
Date Added
02/01/2018
02/01/2018
Source Summary flac16; Souree Info: Master Soundboard Reels > PCM > PCM (14-bit) (Sony L-750ESX-HFB tape); Transfer Info: PCM (Sony SL-10)> Sony PCM-601ESD > Behringer Ultramatch Pro > Tascam DA-3000 (wav 16-bit/44.1k)> Adobe Audition 3.0 > TLH flac16; this source is a fix of the two previous flawed sources circulated by Scott Clugston; there is another Fixed version of this source in circulation 
  Archive
Source Information - Download Text | Download Zip
Grateful Dead
P.N.E. Coliseum
Vancouver, British Columbia, Canada
Friday June 22, 1973

Souree Info:
Master Soundboard Reels > PCM > PCM (14-bit) (Sony L-750ESX-HFB tape)

Transfer Info:
PCM (Sony SL-10)> Sony PCM-601ESD > Behringer Ultramatch Pro > Tascam DA-3000 (wav 16-bit/44.1k)> Adobe Audition 3.0 > TLH flac16

Notes:
- Thanks to Tim Dalton for the source PCM
- Thanks to Charlie Miller for the transfer
- Thanks to the folks responsible for the shnid16889 Sony ECM mics source that supplies the first 1:23 of "Bertha", the crowd and first 0:17 of "Big Railroad Blues", a 7:10 patch in "The Other One", as well as the end of "Casey Jones" and "Johnny B. Goode" in its entirety
- Thanks to the folks responsible for the shnid85957 MSC > Reel > Cassette > HDD source that supplies the first 0:23 of "The Race Is On", as well as a 1:11 patch in "I Know You Rider"
- Thanks to Charlie Miller for the MSR > Cassette> Dat> CD source that supplies from the end of "The Other One" thru 6:07 of "Casey Jones"
- Thanks to Charlie Miller for the shnid88526 MSR > PCM > Dat composite source that was used for all of the above patches
- Truckin' contains Nobody's Fault But Mine Jam
- Bass solo > Jam (~16 mins) after Nobodies Fault But Mine jam and before "The Other One"
- Fixed version - patched microsecond dropouts in "Black Peter" at 3:17.5, 4:05.6, 6:54.4, 7:23.3 and 8:48.4 using Charlie Miller's shnid88526 source

Mastered by Scott Clugston
January 30, 2018

Set 1:
t01 - Bertha
t02 - Beat It On Down The Line
t03 - Deal
t04 - Mexicali Blues
t05 - Box Of Rain
t06 - Bird Song
t07 - The Race Is On
t08 - Sugaree
t09 - Looks Like Rain
t10 - Row Jimmy
t11 - Jack Straw
t12 - China Cat Sunflower >
t13 - I Know You Rider
t14 - Big River
t15 - Tennessee Jed
t16 - Playin' In The Band

Set 2:
t17 - Tuning
t18 - Here Comes Sunshine
t19 - The Promised Land
t20 - Brown Eyed Women
t21 - El Paso
t22 - Black Peter
t23 - Greatest Story Ever Told
t24 - Big Railroad Blues
t25 - He's Gone >
t26 - Truckin' >
t27 - The Other One >
t28 - Wharf Rat >
t29 - Sugar Magnolia
t30 - Casey Jones
Encore:
t31 - Johnny B. Goode



    length     expanded size    cdr  WAVE problems  fmt   ratio  filename
     7:23.39       78236972 B   ---   --   ---xx   flac  0.5153  gd73-06-22 t01 Bertha.flac
     3:58.52       42105548 B   ---   --   ---xx   flac  0.5267  gd73-06-22 t02 Beat It On Down The Line.flac
     5:31.51       58508396 B   ---   --   ---xx   flac  0.5151  gd73-06-22 t03 Deal.flac
     4:27.68       47258780 B   ---   --   ---xx   flac  0.5331  gd73-06-22 t04 Mexicali Blues.flac
     6:20.56       67163756 B   ---   --   ---xx   flac  0.5263  gd73-06-22 t05 Box Of Rain.flac
    15:37.23      165340940 B   ---   --   ---xx   flac  0.5146  gd73-06-22 t06 Bird Song.flac
     3:24.21       36035036 B   ---   --   ---xx   flac  0.5474  gd73-06-22 t07 The Race Is On.flac
     9:03.68       95945180 B   ---   --   ---xx   flac  0.5010  gd73-06-22 t08 Sugaree.flac
    10:07.35      107157164 B   ---   --   ---xx   flac  0.4813  gd73-06-22 t09 Looks Like Rain.flac
    10:37.56      112498556 B   ---   --   ---xx   flac  0.4944  gd73-06-22 t10 Row Jimmy.flac
     5:09.55       54637004 B   ---   --   ---xx   flac  0.5119  gd73-06-22 t11 Jack Straw.flac
     8:29.19       89832332 B   ---   --   ---xx   flac  0.5389  gd73-06-22 t12 China Cat Sunflower.flac
     6:39.15       70418924 B   ---   --   ---xx   flac  0.5196  gd73-06-22 t13 I Know You Rider.flac
     5:23.74       57151292 B   ---   --   ---xx   flac  0.5033  gd73-06-22 t14 Big River.flac
    10:05.12      106750268 B   ---   --   ---xx   flac  0.4765  gd73-06-22 t15 Tennessee Jed.flac
    18:53.56      199992956 B   ---   --   ---xx   flac  0.5099  gd73-06-22 t16 Playin' In The Band.flac
     1:22.74       14638892 B   ---   --   ---xx   flac  0.3884  gd73-06-22 t17 Tuning.flac
    12:32.73      132824540 B   ---   --   ---xx   flac  0.5348  gd73-06-22 t18 Here Comes Sunshine.flac
     3:13.01       34047596 B   ---   --   ---xx   flac  0.5433  gd73-06-22 t19 Promised Land.flac
     6:25.68       68073980 B   ---   --   ---xx   flac  0.5009  gd73-06-22 t20 Brown Eyed Women.flac
     5:39.01       59801996 B   ---   --   ---xx   flac  0.4885  gd73-06-22 t21 El Paso.flac
     9:47.69      103709132 B   ---   --   ---xx   flac  0.4556  gd73-06-22 t22 Black Peter.flac
     4:58.21       52616636 B   ---   --   ---xx   flac  0.5354  gd73-06-22 t23 Greatest Story Ever Told.flac
     4:57.22       52442588 B   ---   --   ---xx   flac  0.5062  gd73-06-22 t24 Big Railroad Blues.flac
    11:25.30      120904604 B   ---   --   ---xx   flac  0.4901  gd73-06-22 t25 He's Gone.flac
    26:10.26      277009196 B   ---   --   ---xx   flac  0.5156  gd73-06-22 t26 Truckin'.flac
    15:15.41      161502476 B   ---   --   ---xx   flac  0.5336  gd73-06-22 t27 The Other One.flac
     7:56.27       84029948 B   ---   --   ---xx   flac  0.6007  gd73-06-22 t28 Wharf Rat.flac
     9:51.00      104252444 B   ---   --   ---xx   flac  0.6257  gd73-06-22 t29 Sugar Magnolia.flac
     6:42.34       70992812 B   ---   --   ---xx   flac  0.6124  gd73-06-22 t30 Casey Jones.flac
     4:00.01       42338396 B   ---   --   ---xx   flac  0.5253  gd73-06-22 t31 Johnny B. Goode.flac
   261:32.63     2768218340 B                            0.5195  (31 files)

No errors occured.



Show Checksums
ffp
gd73-06-22 t01 Bertha.flac:ff4d9b57272e014304b70092d3a40afb
gd73-06-22 t02 Beat It On Down The Line.flac:d664e70335f785bfcb29d203479f5a41
gd73-06-22 t03 Deal.flac:54da4e218a8f2612bd17c6928cb0c3b0
gd73-06-22 t04 Mexicali Blues.flac:f103043850524d812d0fc13b91718ef4
gd73-06-22 t05 Box Of Rain.flac:7c30011f0ee74dd5d2cad2e772957154
gd73-06-22 t06 Bird Song.flac:2cf7eaeea97c97ef1b19347adce33458
gd73-06-22 t07 The Race Is On.flac:8f674713782bf9ab9d69c1ea86aeb49d
gd73-06-22 t08 Sugaree.flac:852681e52ca744e3ea1a35cff26a866d
gd73-06-22 t09 Looks Like Rain.flac:44e0c59fb9ca2a6302b080ec6c1e84bb
gd73-06-22 t10 Row Jimmy.flac:5ee19ffcb5d1b560ead063beea6c049c
gd73-06-22 t11 Jack Straw.flac:1684b40c1054abd635a1e372f101dc49
gd73-06-22 t12 China Cat Sunflower.flac:290652cad2c6f6b183373e0a5b31850f
gd73-06-22 t13 I Know You Rider.flac:b94a03ad735a481d2466f58d738bada2
gd73-06-22 t14 Big River.flac:9ebce1628f5377b5569f4aaf202abf52
gd73-06-22 t15 Tennessee Jed.flac:31459d20e447e2a715b14751dae7c6ef
gd73-06-22 t16 Playin' In The Band.flac:949c1dcd711510cebde09faf34132360
gd73-06-22 t17 Tuning.flac:a99d6b54dbbc3edf0187c6106442780a
gd73-06-22 t18 Here Comes Sunshine.flac:231cbb79f88492a96760d42039a37fa3
gd73-06-22 t19 Promised Land.flac:100d0c79b5109b21387025911aae164c
gd73-06-22 t20 Brown Eyed Women.flac:04f91116d082e9086de431b641ad6332
gd73-06-22 t21 El Paso.flac:957b9e084d7fa6932e8ce0c5742e0afe
gd73-06-22 t22 Black Peter.flac:29525503a6ee5aaf6a9bff9d67eac4e8
gd73-06-22 t23 Greatest Story Ever Told.flac:6534116f461510190df35f655562e9d2
gd73-06-22 t24 Big Railroad Blues.flac:41b73427275426ed39c81f4c26cf5fe2
gd73-06-22 t25 He's Gone.flac:0ab821f54f93dfda956c7d7f8e9adb8c
gd73-06-22 t26 Truckin'.flac:c0f9f18d9b42d142a36c8e54e177efaa
gd73-06-22 t27 The Other One.flac:16f571cd5860870961c71b0dc6e7c570
gd73-06-22 t28 Wharf Rat.flac:3745f5e62cf99f8a566466940a732386
gd73-06-22 t29 Sugar Magnolia.flac:80a37ac97b06297105094fb2aef5d8e5
gd73-06-22 t30 Casey Jones.flac:66c5d79168260947aaee054feb277d88
gd73-06-22 t31 Johnny B. Goode.flac:4cc9280dd63962844a5c8198028b5eeb
flac-md5
a569470c387c7fcf585f1fe3ab6f4140 *gd73-06-22 t01 Bertha.flac
406722f999986c8364ffdb7a52ce4b7a *gd73-06-22 t02 Beat It On Down The Line.flac
635b130c6fe3cbf1ff63bfc43790c0c9 *gd73-06-22 t03 Deal.flac
ad9aed3daabfe0b5b6d0d101ac77e94f *gd73-06-22 t04 Mexicali Blues.flac
1dae432632b0b79ffa1c6dc9094ac28d *gd73-06-22 t05 Box Of Rain.flac
75a4e86547caec5cc84ea9131fff7b6e *gd73-06-22 t06 Bird Song.flac
c828780c3a46d84a01eb534f366e6e02 *gd73-06-22 t07 The Race Is On.flac
ad2114b9c8494a9a1eb73ec97f78fb5e *gd73-06-22 t08 Sugaree.flac
74bc761d0831dffe7ef6c3772d4cb7be *gd73-06-22 t09 Looks Like Rain.flac
ec8fc49fb1883785979aa35469882b1b *gd73-06-22 t10 Row Jimmy.flac
53f431885a4e90346133b56a4222b5a2 *gd73-06-22 t11 Jack Straw.flac
3acaf53de57166442cc0b08b72741d2d *gd73-06-22 t12 China Cat Sunflower.flac
4cefd85457885ec19b49cb16352eac08 *gd73-06-22 t13 I Know You Rider.flac
106056eaf88642c951b624f9dc8a0b48 *gd73-06-22 t14 Big River.flac
3f45132e0e3f53ca43f717f8781b34ad *gd73-06-22 t15 Tennessee Jed.flac
d738e0818042ec9fb9511302e1e6c142 *gd73-06-22 t16 Playin' In The Band.flac
1b43f42d6bbbc9bb6ce647548bf8e201 *gd73-06-22 t17 Tuning.flac
9080390550547cc2445d61a837305dde *gd73-06-22 t18 Here Comes Sunshine.flac
ab5ec7b05e7425f0e7b80502e8acacc2 *gd73-06-22 t19 Promised Land.flac
f926a1e74a3093c9ad22aeed9d0f9f96 *gd73-06-22 t20 Brown Eyed Women.flac
f2fa008ea36f678e886f5a1403db0339 *gd73-06-22 t21 El Paso.flac
8b4ab09d030c1ce4e9db972f5bdec768 *gd73-06-22 t22 Black Peter.flac
c25c41db1f20c4f8e4c287065c6a4641 *gd73-06-22 t23 Greatest Story Ever Told.flac
71eac4dfd5bf578dc6476596888ce467 *gd73-06-22 t24 Big Railroad Blues.flac
7b3247b34b23068e67b56ef9f0ed93f0 *gd73-06-22 t25 He's Gone.flac
29b5b47fde3a8619da4d5546087e04c9 *gd73-06-22 t26 Truckin'.flac
e5b01d1cfc6afbfe90e55d24238b4a83 *gd73-06-22 t27 The Other One.flac
7f3a3aa0e20bfb7f357ec045dd2ef723 *gd73-06-22 t28 Wharf Rat.flac
89d60956105b56c5aa41a56542baaca9 *gd73-06-22 t29 Sugar Magnolia.flac
d60966478b24e6bf4cd8c55cb1218d2f *gd73-06-22 t30 Casey Jones.flac
21ca246909e5856af627932d94905d72 *gd73-06-22 t31 Johnny B. Goode.flac

Comments
Add Comment
Other Sources (comments)
Master Sounbdoard Reel >... (3) AUDMC > Reel > Reel > CD >... (0) composite: MSR> PCM> DAT>... (4) flac16; partial set... (2) flac16; Main source... (0) flac16; Recording... (0) flac16; SBD/AUD... (0) flac16; Souree Info:... (1) flac16; Souree Info:... (0)
Date User Comment