Browse Collections Artists Sources   Search Dates

Add Show    List Management    Help


Grateful Dead 04/09/87
UIC Pavilion, Chicago, IL
Comments Add Comment    Source Collectors    Add to Collection    Add to Want List    History
Source # 140893 Other Sources
Entered by Matt Vernon
Checksums ffp , flac-md5
Disc Counts 0 / 0
Media Size Compressed: 830.09 MB (870412288 bytes)
Date Circulated
Date Added
02/01/2018
02/01/2018
Source Summary flac16; Recording Info: Ultra Matrix SBD > Cassette Master (TDK MA-R90); Transfer Info: Cassette Master (Nakamichi CR-7A) > Tascam DA-3000 (DSF 1-bit/5.8 MHz) > KORG AudioGate 4 > Samplitude Pro X3 Suite > FLAC/24; All Transfers and Mastering By Charlie Miller 
  Archive
Source Information - Download Text | Download Zip
Grateful Dead - April 9, 1987
UIC Pavilion - Chicago, IL
University of Illinois

Recording Info:
Ultra Matrix SBD > Cassette Master (TDK MA-R90)

Transfer Info:
Cassette Master (Nakamichi CR-7A) > Tascam DA-3000 (DSF 1-bit/5.8 MHz) >
KORG AudioGate 4 > Samplitude Pro X3 Suite > FLAC/24
(1 Disc FLAC)

All Transfers and Mastering By Charlie Miller
[email protected]
January 29, 2018

Notes:
-- This file set is 16 bit

Set 1:
01 - Tuning
02 - Greatest Story Ever Told >
03 - Promised Land
04 - When Push Comes To Shove
05 - Never Trust A Woman >
06 - El Paso
07 - Row Jimmy
08 - My Brother Esau
09 - Far From Me
10 - Deal

Set 2:
11 - Tuning
12 - Scarlet Begonias >
13 - Fire On The Mountain
14 - Playing In The Band >
15 - Uncle John's Band >
16 - Drums >
17 - Space >
18 - China Doll >
19 - Playing In The Band Tease >
20 - Goin' Down The Road Feeling Bad >
21 - Sugar Magnolia

Encore:
22 - Encore Break
23 - U.S. Blues


SHNTOOL OUTPUT:
    length     expanded size    cdr  WAVE problems  fmt   ratio  filename
     2:03.68       21857180 B   ---   --   ---xx   flac  0.5687  01 Tuning.flac
     3:57.03       41813900 B   ---   --   ---xx   flac  0.6420  02 Greatest Story Ever Told.flac
     5:07.13       54185420 B   ---   --   ---xx   flac  0.6397  03 Promised Land.flac
     5:10.74       54858092 B   ---   --   ---xx   flac  0.6344  04 When Push Comes To Shove.flac
     5:07.09       54176012 B   ---   --   ---xx   flac  0.6264  05 Never Trust A Woman.flac
     5:44.41       60778076 B   ---   --   ---xx   flac  0.6290  06 El Paso.flac
    10:47.04      114140252 B   ---   --   ---xx   flac  0.6182  07 Row Jimmy.flac
     5:47.43       61311980 B   ---   --   ---xx   flac  0.6364  08 My Brother Esau.flac
     4:22.41       46313276 B   ---   --   ---xx   flac  0.6652  09 Far From Me.flac
     6:49.12       72175868 B   ---   --   ---xx   flac  0.6704  10 Deal.flac
     1:01.52       10882748 B   ---   --   ---xx   flac  0.5223  11 Tuning.flac
     8:32.15       90352124 B   ---   --   ---xx   flac  0.5878  12 Scarlet Begonias.flac
    10:48.11      114333116 B   ---   --   ---xx   flac  0.5857  13 Fire On The Mountain.flac
     8:33.44       90596732 B   ---   --   ---xx   flac  0.5972  14 Playing In The Band.flac
     7:40.09       81165212 B   ---   --   ---xx   flac  0.5943  15 Uncle John's Band.flac
     9:40.23      102366140 B   ---   --   ---xx   flac  0.5234  16 Drums.flac
     5:42.31       60401756 B   ---   --   ---xx   flac  0.5269  17 Space.flac
     6:05.51       64505996 B   ---   --   ---xx   flac  0.5748  18 China Doll.flac
     0:30.35        5374364 B   ---   --   ---xx   flac  0.5713  19 Playing Jam.flac
     6:01.71       63847436 B   ---   --   ---xx   flac  0.6148  20 Goin' Down The Road Feeling Bad.flac
     8:09.10       86283164 B   ---   --   ---xx   flac  0.6126  21 Sugar Magnolia.flac
     2:09.37       22842668 B   ---   --   ---xx   flac  0.5508  22 Encore Break.flac
     6:39.18       70425980 B   ---   --   ---xx   flac  0.6014  23 US Blues.flac
   136:31.40     1444987492 B                            0.6023  (23 files)


Show Checksums
ffp
01 Tuning.flac:4350a27bee191322c19c17e21b9717a4
02 Greatest Story Ever Told.flac:ed1cce527392a4a89f6bc26ba2d86b1f
03 Promised Land.flac:96084c0250ba3d89f9ad22a92e0482ac
04 When Push Comes To Shove.flac:d671c9994f08b00916d1f97781bcea52
05 Never Trust A Woman.flac:54040b1ad9b53894e399fcfa132bf35d
06 El Paso.flac:9662321cd3ac090f7357b2a132d5a77d
07 Row Jimmy.flac:1ba8e96f025b86e4f53ac64b3d770aac
08 My Brother Esau.flac:622e8ee2daf90a60e2a17b2a181f9759
09 Far From Me.flac:f9775f3190751c4df2d83b3975be0915
10 Deal.flac:bb3a26ab66c63db28f2b9d141edc9b19
11 Tuning.flac:3eb7e76e0b22174092900fd6b750ce8f
12 Scarlet Begonias.flac:270572be5670fca417608fcbc4878b49
13 Fire On The Mountain.flac:531cb3ea14985aaa4bc9abd7fb730251
14 Playing In The Band.flac:73a698b950bdd7ccf618483ebcdc8ad2
15 Uncle John's Band.flac:32c2fad51c4d5974b19fec773f158c6e
16 Drums.flac:1f0072a161cb48d700ab8fcf3606d4b1
17 Space.flac:9c0db1f6f7618dfa1adfe0d150932686
18 China Doll.flac:a2e5d7b0297d21386f1afec9a9aa8ed9
19 Playing Jam.flac:059c75c0a47977ff59690b0ab4945bbb
20 Goin' Down The Road Feeling Bad.flac:4ff6a36dd55c8a9ee2371235c5144104
21 Sugar Magnolia.flac:cb6e23168c74c5d0295a1d11ac2d7e5e
22 Encore Break.flac:a17ab99af83a95706d5a5e12e61f9684
23 US Blues.flac:1aaa73540a5307c2bcd95b1cc91c3b53
flac-md5
1543f1c55e965e5f6a8f438dfd52610f *01 Tuning.flac
2247c757d74462c6d545d6877e1d1a4b *02 Greatest Story Ever Told.flac
8ffef522592d421edf512989afba5ba7 *03 Promised Land.flac
8f51db5ab1355b4490cd91ce7ef5708b *04 When Push Comes To Shove.flac
0a4be8eaf4def5556f170dd8cfa78b61 *05 Never Trust A Woman.flac
01a976209968636fb63eace2ba7b7c5c *06 El Paso.flac
cbf6d6d2769b8f378710fbc029ed64be *07 Row Jimmy.flac
7760c7376abca1cc66987a3fc25aec1f *08 My Brother Esau.flac
822a88076b8aad4f127975ab1f2b27d5 *09 Far From Me.flac
85a1341c088db16eba5da240641fd067 *10 Deal.flac
9765751cbe2b9357c29ab26f3c880ccb *11 Tuning.flac
2605b1a54fda62bbff3b962e9f951cde *12 Scarlet Begonias.flac
b2fe76a1218b6da8a381bd152ddad7e4 *13 Fire On The Mountain.flac
2e5c17ae90e1c1519c2a3f31f4b8099e *14 Playing In The Band.flac
5621f0ff3e03e6393e965ad26692630c *15 Uncle John's Band.flac
1a11db4fad9d52bc4e7da97afc093050 *16 Drums.flac
ce011c6266efbfd215775c056ab7a0b2 *17 Space.flac
e093b513438b54835c23b1f8636d4459 *18 China Doll.flac
377ee9d41286540d553ed05129551eb0 *19 Playing Jam.flac
097b11d09bc0f0cd812697f8fd8a25ee *20 Goin' Down The Road Feeling Bad.flac
952d6a2f29690f9506e887357cf05fbb *21 Sugar Magnolia.flac
9f8bd6f2563395a4731c7c44fa13fe01 *22 Encore Break.flac
a38736ec60e16276fb69101059ede73c *23 US Blues.flac

Comments
Add Comment
Other Sources (comments)
Source: Audience cassette... (0) Shntool fix of original (0) FOB-AUD>MC>DAT>CDR; Schoeps... (0) flac16; Recording... (0) flac16; OTS AUD:... (0) flac16; Source: 2... (0) flac24; Recording... (1)
Date User Comment