Browse Collections Artists Sources   Search Dates

Add Show    List Management    Help


Grateful Dead 04/10/87
UIC Pavilion, Chicago, IL
Comments Add Comment    Source Collectors    Add to Collection    Add to Want List    History
Source # 140894 Other Sources
Entered by Matt Vernon
Checksums ffp , flac-md5
Disc Counts 0 / 0
Media Size Compressed: 877.6 MB (920231936 bytes)
Date Circulated
Date Added
02/02/2018
02/02/2018
Source Summary flac16; Recording Info: Ultra Matrix SBD > Cassette Master (TDK MA-R90); Transfer Info: Cassette Master (Nakamichi CR-7A) > Tascam DA-3000 (DSF 1-bit/5.8 MHz) > KORG AudioGate 4 > Samplitude Pro X3 Suite > FLAC/24; All Transfers and Mastering By Charlie Miller 
  Archive
Source Information - Download Text | Download Zip
Grateful Dead - April 10, 1987
UIC Pavilion - Chicago, IL

Recording Info:
Ultra Matrix SBD > Cassette Master (TDK MA-R90)

Transfer Info:
Cassette Master (Nakamichi CR-7A) > Tascam DA-3000 (DSF 1-bit/5.8 MHz) >
KORG AudioGate 4 > Samplitude Pro X3 Suite > FLAC/24
(1 Disc FLAC)

All Transfers and Mastering By Charlie Miller
[email protected]
January 31, 2018

Notes:
-- This file set is 16 bit

Set 1:
01 - Tuning
02 - Shakedown Street
03 - Little Red Rooster
04 - Candyman
05 - Me And My Uncle >
06 - Mexicali Blues
07 - Brown Eyed Women
08 - Cassidy >
09 - Don't Ease Me In

Set 2:
10 - Tuning
11 - Iko Iko >
12 - Looks Like Rain
13 - Box Of Rain >
14 - He's Gone >
15 - Drums >
16 - Space >
17 - The Other One >
18 - Black Peter >
19 - Around And Around >
20 - Turn On Your Lovelight

Encore:
21 - Encore Break
22 - It's All Over Now, Baby Blue


SHNTOOL OUTPUT:
    length     expanded size    cdr  WAVE problems  fmt   ratio  filename
     0:55.24        9758492 B   ---   --   ---xx   flac  0.5559  01 Tuning.flac
    10:06.27      106961948 B   ---   --   ---xx   flac  0.6711  02 Shakedown Street.flac
     9:32.48      101013740 B   ---   --   ---xx   flac  0.6341  03 Little Red Rooster.flac
     8:59.70       95244284 B   ---   --   ---xx   flac  0.6137  04 Candyman.flac
     2:55.43       30971180 B   ---   --   ---xx   flac  0.6731  05 Me And My Uncle.flac
     6:31.65       69125324 B   ---   --   ---xx   flac  0.6365  06 Mexicali Blues.flac
     4:52.12       51537068 B   ---   --   ---xx   flac  0.6655  07 Brown Eyed Women.flac
     6:18.57       66813308 B   ---   --   ---xx   flac  0.6616  08 Cassidy.flac
     3:43.18       39379580 B   ---   --   ---xx   flac  0.6722  09 Don't Ease Me In.flac
     0:42.43        7509980 B   ---   --   ---xx   flac  0.5188  10 Tuning.flac
     6:04.59       64348412 B   ---   --   ---xx   flac  0.6677  11 Iko Iko.flac
     8:26.30       89329004 B   ---   --   ---xx   flac  0.6341  12 Looks Like Rain.flac
     5:06.66       54133676 B   ---   --   ---xx   flac  0.6653  13 Box Of Rain.flac
    11:04.09      117150812 B   ---   --   ---xx   flac  0.6366  14 He's Gone.flac
    11:33.06      122259356 B   ---   --   ---xx   flac  0.5608  15 Drums.flac
     7:38.23       80845340 B   ---   --   ---xx   flac  0.5330  16 Space.flac
     5:36.53       59395100 B   ---   --   ---xx   flac  0.6109  17 The Other One.flac
     8:33.72       90662588 B   ---   --   ---xx   flac  0.6198  18 Black Peter.flac
     3:35.20       37973084 B   ---   --   ---xx   flac  0.6777  19 Around And Around.flac
     4:58.37       52654268 B   ---   --   ---xx   flac  0.6776  20 Turn On Your Lovelight.flac
     2:22.61       25192316 B   ---   --   ---xx   flac  0.6134  21 Encore Break.flac
     8:22.11       88578716 B   ---   --   ---xx   flac  0.6273  22 It's All Over Now, Baby Blue.flac
   138:01.29     1460837576 B                            0.6299  (22 files)


Show Checksums
ffp
01 Tuning.flac:d172d39408dabcfbdb3188fa73828cf9
02 Shakedown Street.flac:8f5ab3a5eec55fffe8a97fb2f90463b9
03 Little Red Rooster.flac:1728690082f9efe09ec1250db58afddf
04 Candyman.flac:7f04842dfe8f877b2023d431022ddd2e
05 Me And My Uncle.flac:703f0e79fbcc09292410613783aae114
06 Mexicali Blues.flac:ccb82dd031119a0ed762d767b3bbd969
07 Brown Eyed Women.flac:fc8e06c0273f1a6134e1c06698a43ed1
08 Cassidy.flac:c3f5f7992bca92ffb6c59a509661597d
09 Don't Ease Me In.flac:223e782cfeadf37d7305befbb28a962b
10 Tuning.flac:ae728d81fd789625fb95e3de1cc21be2
11 Iko Iko.flac:38cf5d3e0b4b9765dc46388b8f391724
12 Looks Like Rain.flac:183e44f59d21a5699dc3041b3d2705f2
13 Box Of Rain.flac:991fb2117c7e52a10056b237f83f4bb2
14 He's Gone.flac:de5ca938131c294d949e1e82b7017111
15 Drums.flac:fc5d8f80898fa14450e5120f2b47e2fb
16 Space.flac:c17e2a029adb18990b34eacfc71c3001
17 The Other One.flac:9f36b77084b54524f9c5a04bc16e1237
18 Black Peter.flac:bc7e0f84a9724810d8a7534ca66cfdad
19 Around And Around.flac:77ea2e84bc81627e494c61fd244299e0
20 Turn On Your Lovelight.flac:2b39028dc44877bd453ad226de248290
21 Encore Break.flac:1737d2b9e922e2dc6af3c52413df702a
22 It's All Over Now, Baby Blue.flac:a5a9ebaff8827f788b04d46222a2c5ab
flac-md5
920aa3da3fa7d8b1a9b1cb91987b4a7d *01 Tuning.flac
67feff54a8ce42f653ddec4edeb9a158 *02 Shakedown Street.flac
0e47334c870f2cc56c3998a9a18a496c *03 Little Red Rooster.flac
43fbf65f4b5d971848f0917cbd14f787 *04 Candyman.flac
3f738b46a054567689f5996fc0501e40 *05 Me And My Uncle.flac
e6491144ba7fb47707977aa7bf1485aa *06 Mexicali Blues.flac
8107ee2dcaef6ec2ddd6ff14a620d2cd *07 Brown Eyed Women.flac
6b1425c6966fec55af1fbf1e6682c0d1 *08 Cassidy.flac
89c83cab6937c4a2e9812db1e0062a13 *09 Don't Ease Me In.flac
ac9cc643b4a15a49cd0d9d3853a4c171 *10 Tuning.flac
651487fcd0e348093626f79ec41a4d3a *11 Iko Iko.flac
6855ed90e40e9bca570a8036bf39e602 *12 Looks Like Rain.flac
f9dd5dc2024e91ebcc89c54a8aad5aed *13 Box Of Rain.flac
ffbf2ea7b7323ca81cfb983e6a9d48d3 *14 He's Gone.flac
22e58fa91bf4e5bc271925ceda48db77 *15 Drums.flac
489ccf0aba69ab634adbe1f45fee89f8 *16 Space.flac
869436761f0f6238f97e3a85c8aadb83 *17 The Other One.flac
6434f77575452d6ba0abf942ddb643ea *18 Black Peter.flac
d868b8880dfd6a3dc691915aaebc32ae *19 Around And Around.flac
29e22c0f5cf33b6f4b0be789b132824d *20 Turn On Your Lovelight.flac
e72fc646b4c75dd6badc1ad459360442 *21 Encore Break.flac
22632c29a9b41b7da68e83ea118633e7 *22 It's All Over Now, Baby Blue.flac

Comments
Add Comment
Other Sources (comments)
Schoeps CMC-441 Hyper... (0) Source: Audience Cassette... (1) flac16; OTS AUD:... (0) flac16; Source: SBD... (0) flac16; Recorded by... (1) flac16; Source: 2... (0) flac16; Recording... (0) flac24; Recording... (0)
Date User Comment