Browse Collections Artists Sources   Search Dates

Add Show    List Management    Help


Grateful Dead 10/29/80
Radio City Music Hall, New York, NY
Comments Add Comment    Source Collectors    Add to Collection    Add to Want List    History
Source # 140899 Other Sources
Entered by Matt Vernon
Checksums flac-md5 , ffp
Disc Counts 0 / 0
Media Size Compressed: 1.16 GB (1247805440 bytes)
Date Circulated
Date Added
02/02/2018
02/02/2018
Source Summary flac16; SBD DAT-> Panasonic SV-3700-> SP; DIF-> RME Fireface UC-> USB 2.0-> Hewlett-Packard EliteBook 8460p-> Adobe Audition 3.0.1; Mastering, Patching & Editing by Jason Chastain in Audition CC 2015; Final Mastering by Jamie Waddell in Wavelab 7.1 
  Archive
Source Information - Download Text | Download Zip
Grateful Dead
Wednesday, October 29, 1980
Radio City Music Hall
New York, NY


SBD, with audience patches

DAT archived and transferred by Stuccoholmes
DAT-> Panasonic SV-3700-> SP/DIF-> RME Fireface UC-> USB 2.0->
Hewlett-Packard EliteBook 8460p-> Adobe Audition 3.0.1

Mastering, Patching & Editing by Jason Chastain in Audition CC 2015
Critical Listening assistance by John Wenzel
Final Mastering by Jamie Waddell in Wavelab 7.1


Acoustic
01 Dire Wolf*
02 tuning*
03 On the Road Again*
04 tuning*
05 It Must Have Been the Roses*
06 tuning (partial AUD patch)
07 The Race Is On
08 tuning
09 Bird Song
10 tuning
11 Heaven Help the Fool
12 Oh Babe It Ain't No Lie
13 Ripple

Electric 1
01 tuning
02 Feel Like A Stranger >
02 Franklin's Tower
04 tuning
05 Me and My Uncle >
06 Big River
07 Candyman
08 Little Red Rooster (small patch)
09 tuning*
10 Tennessee Jed*
11 Looks Like Rain*
12 Althea* >
13 The Music Never Stopped*

Electric 2
01 China Cat Sunflower* >
02 I Know You Rider*
03 Estimated Prophet* >
04 Terrapin Station*
05 Drums*
06 Space > (partial AUD patch)
07 The Wheel >
08 Saint Of Circumstance >
09 Black Peter >
10 Sugar Magnolia
Encore
11 US Blues (partial AUD patch)


Patches used:
* AUD (SHNID 101306)
and a few small drop outs repaired using SHNID 140301


originally seeded at www.shnflac.net


    length     expanded size    cdr  WAVE problems  fmt   ratio  filename
     4:02.35       42771164 B   ---   --   ---xx   flac  0.6141  gd1980-10-29-s1t01.flac
     1:30.34       15956012 B   ---   --   ---xx   flac  0.5492  gd1980-10-29-s1t02.flac
     3:20.65       35432924 B   ---   --   ---xx   flac  0.6151  gd1980-10-29-s1t03.flac
     1:10.01       12350396 B   ---   --   ---xx   flac  0.5234  gd1980-10-29-s1t04.flac
     6:46.07       71634908 B   ---   --   ---xx   flac  0.5646  gd1980-10-29-s1t05.flac
     1:16.72       13575788 B   ---   --   ---xx   flac  0.4769  gd1980-10-29-s1t06.flac
     3:02.01       32107196 B   ---   --   ---xx   flac  0.5789  gd1980-10-29-s1t07.flac
     1:51.02       19585148 B   ---   --   ---xx   flac  0.4485  gd1980-10-29-s1t08.flac
     7:58.22       84370988 B   ---   --   ---xx   flac  0.5378  gd1980-10-29-s1t09.flac
     1:10.56       12479756 B   ---   --   ---xx   flac  0.4308  gd1980-10-29-s1t10.flac
     6:57.57       73692908 B   ---   --   ---xx   flac  0.5311  gd1980-10-29-s1t11.flac
     7:54.19       83658332 B   ---   --   ---xx   flac  0.4552  gd1980-10-29-s1t12.flac
     4:38.09       49060412 B   ---   --   ---xx   flac  0.5394  gd1980-10-29-s1t13.flac
     1:22.45       14570684 B   ---   --   ---xx   flac  0.4107  gd1980-10-29-s2t01.flac
     7:16.43       77011580 B   ---   --   ---xx   flac  0.5652  gd1980-10-29-s2t02.flac
    10:02.47      106303388 B   ---   --   ---xx   flac  0.5587  gd1980-10-29-s2t03.flac
     1:27.07       15363308 B   ---   --   ---xx   flac  0.3727  gd1980-10-29-s2t04.flac
     3:09.37       33426668 B   ---   --   ---xx   flac  0.5413  gd1980-10-29-s2t05.flac
     6:18.52       66801548 B   ---   --   ---xx   flac  0.5522  gd1980-10-29-s2t06.flac
     7:19.56       77571356 B   ---   --   ---xx   flac  0.4927  gd1980-10-29-s2t07.flac
    10:19.07      109208108 B   ---   --   ---xx   flac  0.5703  gd1980-10-29-s2t08.flac
     1:01.14       10793372 B   ---   --   ---xx   flac  0.5647  gd1980-10-29-s2t09.flac
     9:18.32       98506508 B   ---   --   ---xx   flac  0.5886  gd1980-10-29-s2t10.flac
     8:01.57       84982508 B   ---   --   ---xx   flac  0.5709  gd1980-10-29-s2t11.flac
     8:54.40       94291724 B   ---   --   ---xx   flac  0.5755  gd1980-10-29-s2t12.flac
     8:17.13       87701420 B   ---   --   ---xx   flac  0.6220  gd1980-10-29-s2t13.flac
     6:27.62       68412668 B   ---   --   ---xx   flac  0.6278  gd1980-10-29-s3t01.flac
     5:35.44       59197532 B   ---   --   ---xx   flac  0.6501  gd1980-10-29-s3t02.flac
     9:55.00      104958044 B   ---   --   ---xx   flac  0.6125  gd1980-10-29-s3t03.flac
    12:00.63      127156220 B   ---   --   ---xx   flac  0.5935  gd1980-10-29-s3t04.flac
    10:40.59      113034812 B   ---   --   ---xx   flac  0.5082  gd1980-10-29-s3t05.flac
     5:05.17       53842028 B   ---   --   ---xx   flac  0.4026  gd1980-10-29-s3t06.flac
     6:02.00       63856844 B   ---   --   ---xx   flac  0.5099  gd1980-10-29-s3t07.flac
     6:08.40       65009324 B   ---   --   ---xx   flac  0.5709  gd1980-10-29-s3t08.flac
     9:06.05       96326204 B   ---   --   ---xx   flac  0.4741  gd1980-10-29-s3t09.flac
     8:44.35       92515964 B   ---   --   ---xx   flac  0.5690  gd1980-10-29-s3t10.flac
     5:25.71       57497036 B   ---   --   ---xx   flac  0.5970  gd1980-10-29-s3t11.flac
   219:40.26     2325014780 B                            0.5532  (37 files)


Show Checksums
flac-md5
49f8997300a61467700166756ed5f3f2 *gd1980-10-29-s1t01.flac
ed671188c20fd0c95edbb5f9c0b7406e *gd1980-10-29-s1t02.flac
8ea27d76d26533b7aefe69d6983e7724 *gd1980-10-29-s1t03.flac
e3de0a4b26524a60bd45e8f676f1f3cf *gd1980-10-29-s1t04.flac
843bf0d998308109bd4bb0e98c27b1fd *gd1980-10-29-s1t05.flac
e47a36b8f9c06419c46decdf95da54a0 *gd1980-10-29-s1t06.flac
0d7a30e763a8821dc20d36a91f5ec2f5 *gd1980-10-29-s1t07.flac
2413fd3aa7ac650fa36b6a09989bfeef *gd1980-10-29-s1t08.flac
5c03158d9435a45db559c907e1b56e6c *gd1980-10-29-s1t09.flac
653acd2a1918672267f1813c977afb6e *gd1980-10-29-s1t10.flac
8a52695a03c44d54772d2085ee28ab1e *gd1980-10-29-s1t11.flac
4a5140914b0a9b364cb0df44bdbdd7cb *gd1980-10-29-s1t12.flac
09ed3c0393ed6fb240972747d31dfafb *gd1980-10-29-s1t13.flac
812683973fd3c9cd828bef80d4b36414 *gd1980-10-29-s2t01.flac
0ac16b2ebd1a012f21ab031493b5ac25 *gd1980-10-29-s2t02.flac
64ef80d8dcdb72c6f06b1d8b3de13fef *gd1980-10-29-s2t03.flac
bf983032595cebbd8cdd3ba63d175ae4 *gd1980-10-29-s2t04.flac
badf16daa4d56812ebf0664ab0700261 *gd1980-10-29-s2t05.flac
4926001ad420f250ca5766f5a6433c72 *gd1980-10-29-s2t06.flac
0b8ad0619655679015d0a218330b6035 *gd1980-10-29-s2t07.flac
6af6981b278cf38738508f9849396d39 *gd1980-10-29-s2t08.flac
51b994ff39d34716b85373fa5a4fa7f5 *gd1980-10-29-s2t09.flac
de68845d41707cfcec26ca5afa5269e0 *gd1980-10-29-s2t10.flac
90e99ab6ec43d4bc06dd7f18be2efd26 *gd1980-10-29-s2t11.flac
34036bd7f9f07e0947bc9ebfce94eb75 *gd1980-10-29-s2t12.flac
91992240011b6cb182d3f360615fa6e5 *gd1980-10-29-s2t13.flac
0ce7f1aabfef577a5e013a2aaf0b99ed *gd1980-10-29-s3t01.flac
9fcc3e8d396ad8becd32070fd750ea0c *gd1980-10-29-s3t02.flac
8e54007f6ff0e5176b1f5d650e05ef31 *gd1980-10-29-s3t03.flac
7285e4087f843dafd6b5e4745be9d193 *gd1980-10-29-s3t04.flac
3aabb8e8a93b1a9f66af7506e3dc939f *gd1980-10-29-s3t05.flac
f339fd46b4902dd6615adb21d9aad11d *gd1980-10-29-s3t06.flac
682e7c89215c2f329fdb6929065a7ad1 *gd1980-10-29-s3t07.flac
3d61abbb142f4de26ca74452a4752e62 *gd1980-10-29-s3t08.flac
4d9a2ad4b3e9c3798400b9017d6490eb *gd1980-10-29-s3t09.flac
bff21bc637b9f08e971fb592ddb45398 *gd1980-10-29-s3t10.flac
4cbb78a4c33eaecf577630ca0cf8aecb *gd1980-10-29-s3t11.flac
ffp
gd1980-10-29-s1t01.flac:06e7dc4c37c22deb0c92458e3d99506e
gd1980-10-29-s1t02.flac:79504e0b3b6e87ca1377e83b0c13aaa7
gd1980-10-29-s1t03.flac:a668e567b827e3d23536e306809bc364
gd1980-10-29-s1t04.flac:b3c77f836afef6c9127617fb2d00880c
gd1980-10-29-s1t05.flac:0572bafdb6ef503a73419d174cd22209
gd1980-10-29-s1t06.flac:804247583f96956addda6876c7a8ff63
gd1980-10-29-s1t07.flac:d7a010378cc5f9d692b127d0c6c3ec51
gd1980-10-29-s1t08.flac:8401c0a179cd44cbd604aff2ea71117c
gd1980-10-29-s1t09.flac:bde5c8964f00e79f619cbfc787df9717
gd1980-10-29-s1t10.flac:42c38d0bb7a1b2abef9b7d4afa09750b
gd1980-10-29-s1t11.flac:b8b0e4a54607ea79a44b72523df7d2b9
gd1980-10-29-s1t12.flac:d630d27f48a76919426879099c7cd151
gd1980-10-29-s1t13.flac:f9375831b2adbd3c57903900e8c169d1
gd1980-10-29-s2t01.flac:8865f111c01ee0e8adca4b2de7eaa86b
gd1980-10-29-s2t02.flac:fc0f2e1224ea3cf40c6a4087596b92e8
gd1980-10-29-s2t03.flac:76a6be3718b5e7ab7275e5467cadf72e
gd1980-10-29-s2t04.flac:c2bb6e62fc67f04b99761ad197ca8741
gd1980-10-29-s2t05.flac:267a46990406dd248dca59e687212f1a
gd1980-10-29-s2t06.flac:56c52ea81f99db4d810750f0f8f0f612
gd1980-10-29-s2t07.flac:9176f946a2199b5113958a37fd5c9082
gd1980-10-29-s2t08.flac:9e046d4c38820a8b2bcf70e8f12aa63b
gd1980-10-29-s2t09.flac:7cdcdb95d5df17271cd21335850dcacf
gd1980-10-29-s2t10.flac:79c97d9607566a9ec6733d282dd0aee9
gd1980-10-29-s2t11.flac:d11077dc3b5f22f13a1ff0140dde0b94
gd1980-10-29-s2t12.flac:5abf0f551e75f49b829d55db8787fe1b
gd1980-10-29-s2t13.flac:7146569286e51be3f7b0070016ecb6dc
gd1980-10-29-s3t01.flac:6f5fb9deb43f3af03a12ea905ba4ac29
gd1980-10-29-s3t02.flac:9e540e37d2fe2f738f5ff671c8a794cd
gd1980-10-29-s3t03.flac:e2ed787fb5c8d126655be1fcd3faa0df
gd1980-10-29-s3t04.flac:606562afa7b8eb2960f65389307f9f56
gd1980-10-29-s3t05.flac:2e612e6f08c55e7be59734be86018beb
gd1980-10-29-s3t06.flac:3f83739f5f82fa91c3579e04d95effde
gd1980-10-29-s3t07.flac:494b421eafd30825e18fe8d78ae79f5d
gd1980-10-29-s3t08.flac:8dd54edfa62ad2ec3816a936e2b40712
gd1980-10-29-s3t09.flac:166dfe39467790abb026f5b97bf73352
gd1980-10-29-s3t10.flac:ad89cada67c9d7dbcd7ad8859e77c4eb
gd1980-10-29-s3t11.flac:deb52bf1b6abaacae843429aa1a95eeb

Comments
Add Comment
Other Sources (comments)
Recording by Jim Wise:... (2) flac16; **Partial... (0) flac16; Seamless... (1) flac16; Recording... (0) flac16; Loge Dead... (1) flac16; Partial... (0) flac16; AUD: 2x... (0) flac16; Partial Sets... (0) flac24; partial set... (0) flac16; partial set... (0)
Date User Comment