Browse Collections Artists Sources   Search Dates

Add Show    List Management    Help


Grateful Dead 05/06/81
Nassau Coliseum, Uniondale, NY
Comments Add Comment    Source Collectors    Add to Collection    Add to Want List    History
Source # 140902 Other Sources
Entered by Matt Vernon
Checksums ffp , flac-md5
Disc Counts 0 / 0
Media Size
Date Circulated
Date Added
02/02/2018
02/02/2018
Source Summary flac16; Source Info: Jim Wise's Master Audience Cassette w/ dolby B; Sennheiser 421's > Sony TC-D5; Transfer Info: Cassette Master (Nakamichi Dragon) w/ dolby B > KORG MR1000 (.wav 24 bit-96k) > Samplitude > Adobe Audition 3.0> TLH flac2496; 24 bit > 16 bit via dBpoweramp 
  Archive
Source Information - Download Text | Download Zip
Grateful Dead
Nassau Veterans Memorial Coliseum
Uniondale, NY
Wednesday May 6, 1981

This is a 16/44 fileset. 24 bit > 16 bit via dBpoweramp

Source Info:
Jim Wise's Master Audience Cassette w/ dolby B; Sennheiser 421's > Sony TC-D5

Transfer Info:
Cassette Master (Nakamichi Dragon) w/ dolby B > KORG MR1000 (.wav 24 bit-96k) > Samplitude > Adobe Audition 3.0> TLH flac2496

Notes:
- Thanks to Jim Wise for the master recording
- Thanks to David Minches for the transfer
- Thanks to Charlie Miller for coordinating this effort
- Evidently, Dan Healy was not feeling friendly toward tapers on this night and was shutting down any tapers he saw. For whatever reason, he allowed Jeff Hellman to set up his Sennheiser 421's in the sound booth, Ed Claridge patched out of Jeff Hellman and Jim Wise patched out of Ed Claridge
- Thanks to the folks responsible for the shnid139786 Sennheiser 421 source which supplies a 0:16 patch in the Jam in "He's Gone", as well as a 0:18 patch in "Drums"
- Transitions smoothed
- "He's Gone" dedicated to Bobby Sands
- noodle into "The Other One" included in "The Other One"

Mastered by Scott Clugston and Charlie Miller
February 2, 2018

Set 1:
t01 - Crowd/Tuning
t02 - Alabama Getaway >
t03 - Greatest Story Ever Told
t04 - They Love Each Other
t05 - Cassidy
t06 - Jack-A-Roe
t07 - Little Red Rooster
t08 - Dire Wolf >
t09 - Looks Like Rain
t10 - Big Railroad Blues >
t11 - Let It Grow >
t12 - Deal

Set Two:
t13 - New Minglewood Blues
t14 - High Time >
t15 - Lost Sailor >
t16 - Saint Of Circumstance >
t17 - He's Gone >
      Caution Jam >
      Spanish Jam >
t18 - Drums >
t19 - Space >
t20 - The Other One >
t21 - Going Down The Road Feeling Bad >
t22 - Wharf Rat >
t23 - Good Lovin'
Encore:
t24 - Don't Ease Me In




    length     expanded size    cdr  WAVE problems  fmt   ratio  filename
     1:43.13       18199820 B   ---   --   ---xx   flac  0.5189  gd81-05-06 s1 t01 Crowd_Tuning.flac
     4:50.22       51207788 B   ---   --   ---xx   flac  0.6151  gd81-05-06 s1 t02 Alabama Getaway.flac
     4:17.61       45478316 B   ---   --   ---xx   flac  0.6105  gd81-05-06 s1 t03 Greatest Story Ever Told.flac
     6:57.31       73631756 B   ---   --   ---xx   flac  0.5810  gd81-05-06 s1 t04 They Love Each Other.flac
     5:00.17       52960028 B   ---   --   ---xx   flac  0.6117  gd81-05-06 s1 t05 Cassidy.flac
     4:52.22       51560588 B   ---   --   ---xx   flac  0.5912  gd81-05-06 s1 t06 Jack-A-Roe.flac
     9:56.21      105183836 B   ---   --   ---xx   flac  0.5946  gd81-05-06 s1 t07 Little Red Rooster.flac
     3:23.13       35839820 B   ---   --   ---xx   flac  0.6023  gd81-05-06 s1 t08 Dire Wolf.flac
     8:50.33       93569660 B   ---   --   ---xx   flac  0.5738  gd81-05-06 s1 t09 Looks Like Rain.flac
     3:50.13       40602620 B   ---   --   ---xx   flac  0.6349  gd81-05-06 s1 t10 Big Railroad Blues.flac
     9:55.43      105059180 B   ---   --   ---xx   flac  0.6086  gd81-05-06 s1 t11 Let It Grow.flac
     7:17.42       77185628 B   ---   --   ---xx   flac  0.6164  gd81-05-06 s1 t12 Deal.flac
     7:01.34       74344412 B   ---   --   ---xx   flac  0.6027  gd81-05-06 s2 t01 New Minglewood Blues.flac
     9:38.47      102069788 B   ---   --   ---xx   flac  0.5490  gd81-05-06 s2 t02 High Time.flac
     6:12.42       65719628 B   ---   --   ---xx   flac  0.5696  gd81-05-06 s2 t03 Lost Sailor.flac
     6:36.67       70012028 B   ---   --   ---xx   flac  0.6309  gd81-05-06 s2 t04 Saint Of Circumstance.flac
    26:59.46      285699836 B   ---   --   ---xx   flac  0.5665  gd81-05-06 s2 t05 He's Gone.flac
     7:01.16       74302076 B   ---   --   ---xx   flac  0.5360  gd81-05-06 s2 t06 Drums.flac
     3:43.15       39372524 B   ---   --   ---xx   flac  0.5311  gd81-05-06 s2 t07 Space.flac
     5:57.06       62988956 B   ---   --   ---xx   flac  0.5840  gd81-05-06 s2 t08 The Other One.flac
     5:33.42       58840028 B   ---   --   ---xx   flac  0.6311  gd81-05-06 s2 t09 Goin' Down the Road Feeling Bad.flac
     9:10.47       97130588 B   ---   --   ---xx   flac  0.5593  gd81-05-06 s2 t10 Wharf Rat.flac
     7:06.68       75306380 B   ---   --   ---xx   flac  0.6345  gd81-05-06 s2 t11 Good Lovin'.flac
     3:24.33       36063260 B   ---   --   ---xx   flac  0.6164  gd81-05-06 s2 t12 Don't Ease Me In.flac
   169:20.44     1792328544 B                            0.5874  (24 files)

No errors occured.


Show Checksums
ffp
gd81-05-06 s1 t01 Crowd_Tuning.flac:d74485c473c9d264f510766e4c6a6d50
gd81-05-06 s1 t02 Alabama Getaway.flac:7b9c8b15d59506a5d3e1b9868d03d56d
gd81-05-06 s1 t03 Greatest Story Ever Told.flac:5a979f96375d8e08598908898edb0598
gd81-05-06 s1 t04 They Love Each Other.flac:8d678c0458a44240f6cdd36747f0f59d
gd81-05-06 s1 t05 Cassidy.flac:0d0ea29792e5a8c4f653bc34f92f67c1
gd81-05-06 s1 t06 Jack-A-Roe.flac:79315dae3946b4bf49305613c5fbc987
gd81-05-06 s1 t07 Little Red Rooster.flac:1214761d2b7ffd927cd825ffa3d869a1
gd81-05-06 s1 t08 Dire Wolf.flac:3967bcb1f5e7acd4c2fb7f1d6770d20e
gd81-05-06 s1 t09 Looks Like Rain.flac:d434d925b3d06b42b58e9ff4919c1b9f
gd81-05-06 s1 t10 Big Railroad Blues.flac:876e54add290c2fc68dcaf1f06fbf0df
gd81-05-06 s1 t11 Let It Grow.flac:823f3db391e9cb966cc1071c11535438
gd81-05-06 s1 t12 Deal.flac:e0de8d8fea991825736b2f7dbb5b26cd
gd81-05-06 s2 t01 New Minglewood Blues.flac:c1e2162c13eec54b5bf098c1319e8c28
gd81-05-06 s2 t02 High Time.flac:f4df893c37061bb8b0265c707fe6bcf8
gd81-05-06 s2 t03 Lost Sailor.flac:e30557f63578075a2f6f531d21d8af70
gd81-05-06 s2 t04 Saint Of Circumstance.flac:be20956636f4d64b41e61202b9950155
gd81-05-06 s2 t05 He's Gone.flac:81246da3c28194c09da781e066ab5f00
gd81-05-06 s2 t06 Drums.flac:bdc75984f6f98e120cd1c5f65c564940
gd81-05-06 s2 t07 Space.flac:f3282277c16efdcaef98c270c6ea7128
gd81-05-06 s2 t08 The Other One.flac:54257c6ee36adee9d63e18d91bc273e7
gd81-05-06 s2 t09 Goin' Down the Road Feeling Bad.flac:a6b60664fc5cd4e8c4666b791ca7f37a
gd81-05-06 s2 t10 Wharf Rat.flac:1cb8c4b420de3bb78323d85576166f2d
gd81-05-06 s2 t11 Good Lovin'.flac:cd5026c53b787ccffd423e8269f35eb2
gd81-05-06 s2 t12 Don't Ease Me In.flac:22dd90de6f1499985fcb7b781c503a47
flac-md5
8bb80bfc5b56d0f39623515d5c346d92 *gd81-05-06 s1 t01 Crowd_Tuning.flac
0eeaefce09a819773e0328c32e532c72 *gd81-05-06 s1 t02 Alabama Getaway.flac
566738047e50344bf7d86453c3de8297 *gd81-05-06 s1 t03 Greatest Story Ever Told.flac
430a8e529d9c9c53c5e5db597682933d *gd81-05-06 s1 t04 They Love Each Other.flac
32cdd1f59fbd9fb1452c6a423d415e45 *gd81-05-06 s1 t05 Cassidy.flac
e9d66569092c7f233050e169bad97c3b *gd81-05-06 s1 t06 Jack-A-Roe.flac
00fdc32ff34970accb156e13a5d0d279 *gd81-05-06 s1 t07 Little Red Rooster.flac
1f69a76e97c9162842ad3cf4bf2a48c1 *gd81-05-06 s1 t08 Dire Wolf.flac
3a463baa8f5f3a3bd3946aa5363790f9 *gd81-05-06 s1 t09 Looks Like Rain.flac
7f882f7f519a357291eeb698c1aac0bf *gd81-05-06 s1 t10 Big Railroad Blues.flac
b483d2cea4f05f648fba3377630cf32b *gd81-05-06 s1 t11 Let It Grow.flac
d325525a5aa9ea0cc811298cad15f6ab *gd81-05-06 s1 t12 Deal.flac
630375f0636752bcb893a9d1418f016e *gd81-05-06 s2 t01 New Minglewood Blues.flac
c38c4a0856e1e40056c1d9e6f07ac526 *gd81-05-06 s2 t02 High Time.flac
f440a583971c615b0361f53337abd033 *gd81-05-06 s2 t03 Lost Sailor.flac
d4c9b8259eec61f49ff0a657fb37b339 *gd81-05-06 s2 t04 Saint Of Circumstance.flac
da0a960449158f54bb0cd32e7c3db9a3 *gd81-05-06 s2 t05 He's Gone.flac
7ab69c54d81d2f74205f068fe9d014b7 *gd81-05-06 s2 t06 Drums.flac
b8cf4edcc691b948ee8200aa3b77647c *gd81-05-06 s2 t07 Space.flac
bfc9e50b6a24b511440a423b221d30a3 *gd81-05-06 s2 t08 The Other One.flac
86f5d76c0332acfb4c7606f35a4632aa *gd81-05-06 s2 t09 Goin' Down the Road Feeling Bad.flac
171e9866059fcd441016fe4ed829ccd9 *gd81-05-06 s2 t10 Wharf Rat.flac
6e145ba80a93480b68dfe036e8036281 *gd81-05-06 s2 t11 Good Lovin'.flac
7fe53bf6bd47a9bb7f9ff4ee5a53244d *gd81-05-06 s2 t12 Don't Ease Me In.flac

Comments
Add Comment
Other Sources (comments)
Recording by Barry... (0) NAK-700's > SONY TC-D5M... (1) flac16; Recording by... (0) flac24; source: aud... (0) flac16; source: aud... (0) flac16; Set 2 Source... (0) flac24; Set 2 Source... (0) flac24; Source Info:... (0)
Date User Comment