Browse Collections Artists Sources   Search Dates

Add Show    List Management    Help


Grateful Dead 05/06/81
Nassau Coliseum, Uniondale, NY
Comments Add Comment    Source Collectors    Add to Collection    Add to Want List    History
Source # 140903 Other Sources
Entered by Matt Vernon
Checksums ffp , flac-md5
Disc Counts 0 / 0
Media Size
Date Circulated
Date Added
02/02/2018
02/02/2018
Source Summary flac24; Source Info: Jim Wise's Master Audience Cassette w/ dolby B; Sennheiser 421's > Sony TC-D5; Transfer Info: Cassette Master (Nakamichi Dragon) w/ dolby B > KORG MR1000 (.wav 24 bit-96k) > Samplitude > Adobe Audition 3.0> TLH flac2496 
  Archive
Source Information - Download Text | Download Zip
Grateful Dead
Nassau Veterans Memorial Coliseum
Uniondale, NY
Wednesday May 6, 1981

Source Info:
Jim Wise's Master Audience Cassette w/ dolby B; Sennheiser 421's > Sony TC-D5

Transfer Info:
Cassette Master (Nakamichi Dragon) w/ dolby B > KORG MR1000 (.wav 24 bit-96k) > Samplitude > Adobe Audition 3.0> TLH flac2496

Notes:
- Thanks to Jim Wise for the master recording
- Thanks to David Minches for the transfer
- Thanks to Charlie Miller for coordinating this effort
- Evidently, Dan Healy was not feeling friendly toward tapers on this night and was shutting down any tapers he saw. For whatever reason, he allowed Jeff Hellman to set up his Sennheiser 421's in the sound booth, Ed Claridge patched out of Jeff Hellman and Jim Wise patched out of Ed Claridge
- Thanks to the folks responsible for the shnid139786 Sennheiser 421 source which supplies a 0:16 patch in the Jam in "He's Gone", as well as a 0:18 patch in "Drums"
- Transitions smoothed
- "He's Gone" dedicated to Bobby Sands
- noodle into "The Other One" included in "The Other One"

Mastered by Scott Clugston and Charlie Miller
February 2, 2018

Set 1:
t01 - Crowd/Tuning
t02 - Alabama Getaway >
t03 - Greatest Story Ever Told
t04 - They Love Each Other
t05 - Cassidy
t06 - Jack-A-Roe
t07 - Little Red Rooster
t08 - Dire Wolf >
t09 - Looks Like Rain
t10 - Big Railroad Blues >
t11 - Let It Grow >
t12 - Deal

Set Two:
t13 - New Minglewood Blues
t14 - High Time >
t15 - Lost Sailor >
t16 - Saint Of Circumstance >
t17 - He's Gone >
      Caution Jam >
      Spanish Jam >
t18 - Drums >
t19 - Space >
t20 - The Other One >
t21 - Going Down The Road Feeling Bad >
t22 - Wharf Rat >
t23 - Good Lovin'
Encore:
t24 - Don't Ease Me In




    length     expanded size    cdr  WAVE problems  fmt   ratio  filename
     1:43.173      59427884 B   cxx   --   ---xx   flac  0.6203  gd81-05-06 s1 t01 Crowd_Tuning.flac
     4:50.293     167209004 B   cxx   --   ---xx   flac  0.6545  gd81-05-06 s1 t02 Alabama Getaway.flac
     4:17.813     148500524 B   cxx   --   ---xx   flac  0.6535  gd81-05-06 s1 t03 Greatest Story Ever Told.flac
     6:57.413     240430124 B   cxx   --   ---xx   flac  0.6462  gd81-05-06 s1 t04 They Love Each Other.flac
     5:00.227     172930604 B   cxx   --   ---xx   flac  0.6575  gd81-05-06 s1 t05 Cassidy.flac
     4:52.293     168361004 B   cxx   --   ---xx   flac  0.6494  gd81-05-06 s1 t06 Jack-A-Roe.flac
     9:56.280     343457324 B   cxx   --   ---xx   flac  0.6476  gd81-05-06 s1 t07 Little Red Rooster.flac
     3:23.173     117027884 B   cxx   --   ---xx   flac  0.6515  gd81-05-06 s1 t08 Dire Wolf.flac
     8:50.440     305533484 B   cxx   --   ---xx   flac  0.6441  gd81-05-06 s1 t09 Looks Like Rain.flac
     3:50.173     132579884 B   cxx   --   ---xx   flac  0.6620  gd81-05-06 s1 t10 Big Railroad Blues.flac
     9:55.573     343050284 B   cxx   --   ---xx   flac  0.6527  gd81-05-06 s1 t11 Let It Grow.flac
     7:17.571     252040928 B   cxx   --   ---xx   flac  0.6561  gd81-05-06 s1 t12 Deal.flac
     7:01.453     242757164 B   cxx   --   ---xx   flac  0.6512  gd81-05-06 s2 t01 New Minglewood Blues.flac
     9:38.627     333289004 B   cxx   --   ---xx   flac  0.6320  gd81-05-06 s2 t02 High Time.flac
     6:12.560     214594604 B   cxx   --   ---xx   flac  0.6393  gd81-05-06 s2 t03 Lost Sailor.flac
     6:36.893     228610604 B   cxx   --   ---xx   flac  0.6616  gd81-05-06 s2 t04 Saint Of Circumstance.flac
    26:59.613     932897324 B   cxx   --   ---xx   flac  0.6389  gd81-05-06 s2 t05 He's Gone.flac
     7:01.213     242618924 B   cxx   --   ---xx   flac  0.6297  gd81-05-06 s2 t06 Drums.flac
     3:43.200     128563244 B   cxx   --   ---xx   flac  0.6280  gd81-05-06 s2 t07 Space.flac
     5:57.080     205678124 B   cxx   --   ---xx   flac  0.6453  gd81-05-06 s2 t08 The Other One.flac
     5:33.560     192130604 B   cxx   --   ---xx   flac  0.6618  gd81-05-06 s2 t09 Goin' Down the Road Feeling Bad.flac
     9:10.627     317161004 B   cxx   --   ---xx   flac  0.6365  gd81-05-06 s2 t10 Wharf Rat.flac
     7:06.907     245898284 B   cxx   --   ---xx   flac  0.6631  gd81-05-06 s2 t11 Good Lovin'.flac
     3:24.429     117751106 B   cxx   --   ---xx   flac  0.6577  gd81-05-06 s2 t12 Don't Ease Me In.flac
   169:20.587    5852498922 B                            0.6464  (24 files)

No errors occured.


Show Checksums
ffp
gd81-05-06 s1 t01 Crowd_Tuning.flac:149848fe070c0f0c4c0c365514891584
gd81-05-06 s1 t02 Alabama Getaway.flac:ae80c97758ef55632c13810c6ce41966
gd81-05-06 s1 t03 Greatest Story Ever Told.flac:bdd6d1f65a5ae6e7eaf41f5688f20f7f
gd81-05-06 s1 t04 They Love Each Other.flac:cc51ce3a271f02b9546ce41b25964852
gd81-05-06 s1 t05 Cassidy.flac:b1c888e8de763123dd015d511bfd4d33
gd81-05-06 s1 t06 Jack-A-Roe.flac:ced2befdd67396516a9907169792d75c
gd81-05-06 s1 t07 Little Red Rooster.flac:1fb41cc37a130b1b2c48629be8e01354
gd81-05-06 s1 t08 Dire Wolf.flac:35bae07776e2121604a382cfbf10449f
gd81-05-06 s1 t09 Looks Like Rain.flac:d7a0270039ff08c3242be06c6b4183a2
gd81-05-06 s1 t10 Big Railroad Blues.flac:ad264b46e2fe565e0f2514732ae3b56f
gd81-05-06 s1 t11 Let It Grow.flac:3b9ced946b0903044643c85c31682122
gd81-05-06 s1 t12 Deal.flac:35a8e32c4e03cf0134edfa4eef493e9c
gd81-05-06 s2 t01 New Minglewood Blues.flac:b3b4ebecaec4547f33eadd877d35dcaf
gd81-05-06 s2 t02 High Time.flac:859d84cbaf0a2b665bf4075e09f051f0
gd81-05-06 s2 t03 Lost Sailor.flac:eec16d429564b8988aed2ec313eaf27b
gd81-05-06 s2 t04 Saint Of Circumstance.flac:60a3a8925295db70ef92781d2faa5421
gd81-05-06 s2 t05 He's Gone.flac:09f607515d1a31239c7a040a5869e5c5
gd81-05-06 s2 t06 Drums.flac:e4a5870f2ed500dab112e7698a83e4e1
gd81-05-06 s2 t07 Space.flac:c8b91aeb71f53608dd76fbde343b0aaf
gd81-05-06 s2 t08 The Other One.flac:470ed42f7081e52d691ba4696a65b76c
gd81-05-06 s2 t09 Goin' Down the Road Feeling Bad.flac:d124f480bf76c5cc13ff09dd1faeb645
gd81-05-06 s2 t10 Wharf Rat.flac:3cca7369929f3a67e66c6442c1b79d7a
gd81-05-06 s2 t11 Good Lovin'.flac:42141b30a938d987e5037d5d6889b562
gd81-05-06 s2 t12 Don't Ease Me In.flac:a462cbd6aa9791c86ed289b8ffe4e648
flac-md5
1c8790cc26a4cfc828a314dc31901faa *gd81-05-06 s1 t01 Crowd_Tuning.flac
b7ffd61f0ba3ce34f9882f66d942bc24 *gd81-05-06 s1 t02 Alabama Getaway.flac
3571b589c071238c0d0e302b08f7e66c *gd81-05-06 s1 t03 Greatest Story Ever Told.flac
490fc3a876fc1cf30f06dc5d48aad32e *gd81-05-06 s1 t04 They Love Each Other.flac
21555621f2ee9ed0016c487519f70a80 *gd81-05-06 s1 t05 Cassidy.flac
0ba91f467b45aac810dcaa5aeed12ee7 *gd81-05-06 s1 t06 Jack-A-Roe.flac
4f39c4584552d7afc0c0fe6e54c718c2 *gd81-05-06 s1 t07 Little Red Rooster.flac
7bcecd0dc4384411b1fb863879ba9a94 *gd81-05-06 s1 t08 Dire Wolf.flac
3d395e047f9e864412b6c0f6b61f027c *gd81-05-06 s1 t09 Looks Like Rain.flac
1b7a1208557cf9326480a683fd3c7b03 *gd81-05-06 s1 t10 Big Railroad Blues.flac
d70b85ad12b7f6a2e822b9e9b0015ef1 *gd81-05-06 s1 t11 Let It Grow.flac
f2b5ce73a53800bb2c5ec5259c04d7af *gd81-05-06 s1 t12 Deal.flac
bf8188b53ac711fe989d6378c855ee4a *gd81-05-06 s2 t01 New Minglewood Blues.flac
bdb8e9b6f5de0d77d95cbd520f5d1ede *gd81-05-06 s2 t02 High Time.flac
7ac1cf2a2bdb68f927a90fa7e433030d *gd81-05-06 s2 t03 Lost Sailor.flac
27184d662b8bb192c949d00f3c86c894 *gd81-05-06 s2 t04 Saint Of Circumstance.flac
1c11efc0d4bc43135fc0640d5f783283 *gd81-05-06 s2 t05 He's Gone.flac
3a4ba3d0a91682ce8a64ac37a76eb160 *gd81-05-06 s2 t06 Drums.flac
842d36ba937f622aca02521d755aed65 *gd81-05-06 s2 t07 Space.flac
d4eeb5e3130c680a070afc06ce0fae75 *gd81-05-06 s2 t08 The Other One.flac
049df8bbc19bbfbc6d7401ba162c04e1 *gd81-05-06 s2 t09 Goin' Down the Road Feeling Bad.flac
6be5e4745cf0b81f01ede04545832c73 *gd81-05-06 s2 t10 Wharf Rat.flac
fd309ff25130e46bbf231523247ae8cb *gd81-05-06 s2 t11 Good Lovin'.flac
03751c08fe78a3ff3536f4ac27dbb000 *gd81-05-06 s2 t12 Don't Ease Me In.flac

Comments
Add Comment
Other Sources (comments)
Recording by Barry... (0) NAK-700's > SONY TC-D5M... (1) flac16; Recording by... (0) flac24; source: aud... (0) flac16; source: aud... (0) flac16; Set 2 Source... (0) flac24; Set 2 Source... (0) flac16; Source Info:... (0)
Date User Comment