Browse Collections Artists Sources   Search Dates

Add Show    List Management    Help


Grateful Dead 02/12/89
Great Western LA Forum, Inglewood, CA
Comments Add Comment    Source Collectors    Add to Collection    Add to Want List    History
Source # 140913 Other Sources
Entered by Matt Vernon
Checksums ffp , flac-md5
Disc Counts 0 / 0
Media Size Compressed: 850 MB (891289600 bytes)
Uncompressed: 1.54 GB (1655912456 bytes)
Date Circulated
Date Added
02/04/2018
02/04/2018
Source Summary flac16; Matrix 2 Source Mix - SBD (shnid = 137086) Recording Info: SBD -> Cassette Master (TDK SA-X100); Transfer Info: Cassette Master (Nakamichi CR-7A) -> Tascam DA-3000 (DSF 1-bit/5.8 MHz) -> KORG AudioGate 4 -> Samplitude Professional v11.2.1 -> FLAC (24bit/96k); FLAC 16 Additional Lineage: 24/96 flac -> 16/44.1 WAV with dbpoweramp. flac level 8, SBE fix and checksums with traderslittlehelper; + AUD (shnid = 31265) Sean Weber Small rig, Schoeps cmc?? (cardioid caps on mic bodies) ORTF -> Oade pre (m118?) -> Sony F1/Beta rig, line out -> Sony TC-D5M analog cassette master by MF. From FOB/DFC. Mics at 6'5", at eye level to MF, covering the mics. The other mics were Neumann km84's, ortf-> Neu. p48v -> Sony TC-D5M @ 6'4" to 24/96 digital: Sony TC-D5M master deck w/ master tape, no n.r. -> Tascam DVRA1000 DSD in PCM mode 24/96 to flac: Tascam DVRA1000 DSD USB2.0 mode -> Mac Tiger 10.4 import, xACT conversion. - matrix mixing by Kevin Tobin 
  Archive
Source Information - Download Text | Download Zip
Grateful Dead
Great Western Forum,
Inglewood, CA
February 12, 1989

SBD + AUD Matrix 2 Source Mix

Set 1:
d1t01 - Cold Rain And Snow
d1t02 - Hell In A Bucket
d1t03 - Row Jimmy
d1t04 - Beat It On Down The Line ->
d1t05 - Promised Land
d1t06 - West L.A. Fadeaway
d1t07 - How Long Blues *
d1t08 - Gimme Some Lovin' *

Set 2:
d2t01 - Iko Iko $
d2t02 - Monkey And The Engineer $
d2t03 - Alabama Getaway $
d2t04 - Dire Wolf $
d2t05 - Cassidy $
d2t06 - Stuck Inside Of Mobile With The Memphis Blues Again ->  $
d2t07 - Drums -> #
d3t01 - Space ->
d3t02 - The Other One ->
d3t03 - Stella Blue ->
d3t04 - Foolish Heart

Encore:
d3t05 - Crowd/Tuning (3 min)
d3t06 - Not Fade Away ->  $
d3t07 - Knockin' On Heaven's Door $

Jerry Garcia - Guitar
Bob Weid - Guitar
Brent Mydland - Keyboards
Phil Lesh - Bass
Bill Kreutzmann - Drums
Mickey Hart - Drums
Spencer Davis - Guitar *
Bob Dylan - Guitar $
Yoshikazu Fujimoto - Drums #

Audio Information:
Original  SBD (shnid = 137086)

Recording Info:
SBD -> Cassette Master (TDK SA-X100)

Transfer Info:
Cassette Master (Nakamichi CR-7A) -> Tascam DA-3000 (DSF 1-bit/5.8 MHz) ->
KORG AudioGate 4 -> Samplitude Professional v11.2.1 -> FLAC (24bit/96k)
(1 Disc FLAC)

FLAC 16 Additional Lineage:
24/96 flac -> 16/44.1 WAV with dbpoweramp.
flac level 8, SBE fix and checksums with traderslittlehelper.

All Transfers and Mastering By Charlie Miller
[email protected]
October 7, 2016

Notes:
-- How Long Blues and Gimme Some Lovin' with Spencer Davis
-- Iko thru Memphis Blues and NFA -> Heaven's Door with Bob Dylan
-- The Other One with Kodo drummer

Original  AUD (shnid = 31265)

Ambient Recording by Tapers From Hell: A Journey to the Impact Zone
Analog Masters by Mike French "Moke"

Sean Weber Small rig, Schoeps cmc?? (cardioid caps on mic bodies)ORTF -> Oade pre (m118?) -> Sony F1/Beta rig, line out -> Sony TC-D5M analog cassette master by MF. From FOB/DFC. Mics at 6'5", at eye level to MF, covering the mics. The other mics were Neumann km84's, ortf-> Neu. p48v -> Sony TC-D5M @ 6'4"
to 24/96 digital:
Sony TC-D5M master deck w/ master tape, no n.r. -> Tascam DVRA1000 DSD in PCM mode 24/96
to flac:
Tascam DVRA1000 DSD USB2.0 mode -> Mac Tiger 10.4 import, xACT conversion.

SBD and  AUD were patched with the following:
AUD (shnid = 124818)

Taper: M.Laurentus
Taper: Section 1, Row DDD, seat 6
AT835B's- AT 8202?s-SONY WM D6-C
Cassette-Tascam DR-5 Line In-CD Wave- Flac
---------------------------------------------------------
- Mixed by [email protected]
- FLAC conversion 04-FEB-2018 - Trader Little Helper
- Tagged 04-FEB-2018 - Tag&Rename
---------------------------------------------------------
Brokedown House Production

    length     expanded size    cdr  WAVE problems  fmt   ratio  filename
     5:53.22       62320988 B   ---   --   -----    wav  1.0000  gd1989-02-12d1t01.wav
     9:16.56       98210156 B   ---   --   -----    wav  1.0000  gd1989-02-12d1t02.wav
    12:14.43      129578780 B   ---   --   -----    wav  1.0000  gd1989-02-12d1t03.wav
     3:16.40       34668524 B   ---   --   -----    wav  1.0000  gd1989-02-12d1t04.wav
     4:53.56       51816956 B   ---   --   -----    wav  1.0000  gd1989-02-12d1t05.wav
     9:13.08       97568060 B   ---   --   -----    wav  1.0000  gd1989-02-12d1t06.wav
     4:44.24       50154092 B   ---   --   -----    wav  1.0000  gd1989-02-12d1t07.wav
     8:18.48       87960140 B   ---   --   -----    wav  1.0000  gd1989-02-12d1t08.wav
     7:43.55       81802604 B   ---   --   -----    wav  1.0000  gd1989-02-12d2t01.wav
     3:36.17       38142428 B   ---   --   -----    wav  1.0000  gd1989-02-12d2t02.wav
     5:10.38       54773420 B   ---   --   -----    wav  1.0000  gd1989-02-12d2t03.wav
     4:20.53       45988700 B   ---   --   -----    wav  1.0000  gd1989-02-12d2t04.wav
     7:28.04       79036652 B   ---   --   -----    wav  1.0000  gd1989-02-12d2t05.wav
     8:27.00       89434844 B   ---   --   -----    wav  1.0000  gd1989-02-12d2t06.wav
    11:01.42      116699228 B   ---   --   -----    wav  1.0000  gd1989-02-12d2t07.wav
     6:50.16       72361676 B   ---   --   -----    wav  1.0000  gd1989-02-12d3t01.wav
     7:53.74       83611292 B   ---   --   -----    wav  1.0000  gd1989-02-12d3t02.wav
     7:57.62       84288668 B   ---   --   -----    wav  1.0000  gd1989-02-12d3t03.wav
     7:30.57       79514108 B   ---   --   -----    wav  1.0000  gd1989-02-12d3t04.wav
     4:25.74       46920092 B   ---   --   -----    wav  1.0000  gd1989-02-12d3t05.wav
     8:53.49       94136492 B   ---   --   -----    wav  1.0000  gd1989-02-12d3t06.wav
     7:16.06       76924556 B   ---   --   -----    wav  1.0000  gd1989-02-12d3t07.wav
   156:27.19     1655912456 B                            1.0000  (22 files)



Show Checksums
ffp
gd1989-02-12d1t01.flac:e7d3d36e1ae6462f83d345deb2540291
gd1989-02-12d1t02.flac:a92fe1ef692f04359120d28836e143c7
gd1989-02-12d1t03.flac:4198cb67dad1030e87c6834f4cd937ea
gd1989-02-12d1t04.flac:ca133b635f04637e420dd0f7663d29ef
gd1989-02-12d1t05.flac:c9af0e88db0ddeb27bf21724179cd662
gd1989-02-12d1t06.flac:13402b2ef91061827a8a7fea0d63dfd5
gd1989-02-12d1t07.flac:05db04c53051cba62629e9ff9752fb50
gd1989-02-12d1t08.flac:8401702ffe6d5a107e007513b655a5bd
gd1989-02-12d2t01.flac:4ccc61f83c597b22fc02189d22cfa8ca
gd1989-02-12d2t02.flac:c56cc7414d79cf659823c4f3d11a385c
gd1989-02-12d2t03.flac:4a4721941becd0483865ad8100a52e95
gd1989-02-12d2t04.flac:2d55931235135778cb88caae81cc048e
gd1989-02-12d2t05.flac:8383991f864d1cacc7d6813711ef57c4
gd1989-02-12d2t06.flac:f1e386048300f34420b7457bc2948b90
gd1989-02-12d2t07.flac:daed19f609e5dfbe7c5a1bd8b215c39a
gd1989-02-12d3t01.flac:0fa4aa98a31aaa9a023f2590b38fc1ed
gd1989-02-12d3t02.flac:0adbf1b884226cc786abad99197e3c8d
gd1989-02-12d3t03.flac:f9ce306ca5bd1937125aac43ce19e09f
gd1989-02-12d3t04.flac:7219c0b0b5ca1b69ed952df2523afdbd
gd1989-02-12d3t05.flac:31ce03fbb2f11853db3be882ba8df033
gd1989-02-12d3t06.flac:8cde8c7acc7d9ec81f58f77292637708
gd1989-02-12d3t07.flac:e0b60a9c665acb00775b7a98e96bf0a0
flac-md5
d7f81ef876fd6e0c98f1df55911ad3cb *gd1989-02-12d1t01.flac
c9198aa04b3fadec4d811c8075e88e77 *gd1989-02-12d1t02.flac
a407824f86e4a49586f8e413420355af *gd1989-02-12d1t03.flac
7b6e89d10df8e0b108a68ef9db85b473 *gd1989-02-12d1t04.flac
0583cfe3a3ba0555fb09d186b884d4af *gd1989-02-12d1t05.flac
3b787cae55dfec8fef2be9e3436874b6 *gd1989-02-12d1t06.flac
f7a970ebac34d199469c99f5f65dfc7a *gd1989-02-12d1t07.flac
77a07c1ccd36dcb6618000af6f5444ae *gd1989-02-12d1t08.flac
dbcde028849e897089cc4676504b8d43 *gd1989-02-12d2t01.flac
f1c70683943f56a1923fc39d2bcbd642 *gd1989-02-12d2t02.flac
90b519226c31cbfaaf0fdc0e44d82ea2 *gd1989-02-12d2t03.flac
9b90f6552cce53f31f0a45a137149171 *gd1989-02-12d2t04.flac
de62e385c1c9fd95d01be17aee19f59b *gd1989-02-12d2t05.flac
ee06c2e0a419ad6eb4e2d0fb98f6a437 *gd1989-02-12d2t06.flac
e51cb826de24fbb8637ca64633c098c7 *gd1989-02-12d2t07.flac
72cebc3c8c34d675bbd3afd1bc7507aa *gd1989-02-12d3t01.flac
ddba53ead59e2b3fdfd3c2644cf5b77e *gd1989-02-12d3t02.flac
a9f3906f8edef29209834448d3647738 *gd1989-02-12d3t03.flac
9488d57646512bb0286c44dea8eb1f1a *gd1989-02-12d3t04.flac
4c042653ee03f82fe44a1dfce8145d9a *gd1989-02-12d3t05.flac
e404174bbacb85c2d31b2e844378fcbc *gd1989-02-12d3t06.flac
1dfb549339c4c33e6fcbbb1e0c732d19 *gd1989-02-12d3t07.flac

Comments
Add Comment
Other Sources (comments)
SBD; via Mike Lai (2) SBD> MC> DAT> CD> SHN (5) flac24; Sean Weber... (0) flac16; Sean Weber... (1) flac16; Recording... (0) flac16; AT835B's- AT... (0) flac24; Recording... (0) flac16; Recording... (0) flac16; Set 1 Source... (0) DTS-Audio-CD 5.1... (0) flac16/48kHz; 5.1... (0) flac16; Recording... (0)
Date User Comment