Browse Collections Artists Sources   Search Dates

Add Show    List Management    Help


Grateful Dead 04/11/87
UIC Pavilion, Chicago, IL
Comments Add Comment    Source Collectors    Add to Collection    Add to Want List    History
Source # 140921 Other Sources
Entered by Matt Vernon
Checksums ffp , flac-md5
Disc Counts 0 / 0
Media Size
Date Circulated
Date Added
02/05/2018
02/05/2018
Source Summary flac24; Recording Info: Ultra Matrix SBD > Cassette Master (TDK MA-R90); Transfer Info: Cassette Master (Nakamichi CR-7A) > Tascam DA-3000 (DSF 1-bit/5.8 MHz) > KORG AudioGate 4 > Samplitude Pro X3 Suite > FLAC/24; All Transfers and Mastering By Charlie Miller 
  Archive
Source Information - Download Text | Download Zip
Grateful Dead - April 11, 1987
UIC Pavilion - Chicago, IL

Recording Info:
Ultra Matrix SBD > Cassette Master (TDK MA-R90)

Transfer Info:
Cassette Master (Nakamichi CR-7A) > Tascam DA-3000 (DSF 1-bit/5.8 MHz) >
KORG AudioGate 4 > Samplitude Pro X3 Suite > FLAC/24
(1 Disc FLAC)

All Transfers and Mastering By Charlie Miller
[email protected]
February 5, 2018

Notes:
-- Two sets of masters were used to make this show complete

Set 1:
01 - Tuning
02 - Hell In A Bucket >
03 - Sugaree
04 - New Minglewood Blues
05 - Loser
06 - Tons Of Steel >
07 - Desolation Row
08 - Big Railroad Blues
09 - The Music Never Stopped

Set 2:
10 - Touch Of Grey >
11 - Man Smart (Women Smarter) >
12 - Terrapin Station >
13 - Drums >
14 - Space >
15 - Truckin' >
16 - Wharf Rat >
17 - Throwing Stones >
18 - Not Fade Away

Encore:
19 - Not Fade Away
20 - Black Muddy River


SHNTOOL OUTPUT:
    length     expanded size    cdr  WAVE problems  fmt   ratio  filename
     1:11.248      41038670 B   cxx   --   ---xx   flac  0.6821  01 Tuning.flac
     5:52.065     202789202 B   cxx   --   ---xx   flac  0.7093  02 Hell In A Bucket.flac
    10:37.502     367201448 B   cxx   --   ---xx   flac  0.6988  03 Sugaree.flac
     8:02.893     278146622 B   cxx   --   ---xx   flac  0.6999  04 New Minglewood Blues.flac
     9:32.266     329625350 B   cxx   --   ---xx   flac  0.6910  05 Loser.flac
     5:05.584     176016368 B   cxx   --   ---xx   flac  0.7060  06 Far From Me.flac
    12:00.134     414797084 B   cxx   --   ---xx   flac  0.6994  07 Desolation Row.flac
     4:45.867     164659394 B   cxx   --   ---xx   flac  0.7129  08 Big Railroad Blues.flac
     7:31.517     260073572 B   cxx   --   ---xx   flac  0.7028  09 The Music Never Stopped.flac
     6:08.495     212253446 B   cxx   --   ---xx   flac  0.7026  10 Touch Of Grey.flac
     7:38.557     264128612 B   cxx   --   ---xx   flac  0.7025  11 Man Smart (Woman Smarter).flac
    11:25.519     394859192 B   cxx   --   ---xx   flac  0.6868  12 Terrapin Station.flac
     6:30.823     225114086 B   cxx   --   ---xx   flac  0.6591  13 Drums.flac
     8:17.990     286842548 B   cxx   --   ---xx   flac  0.6659  14 Space.flac
     6:29.255     224211062 B   cxx   --   ---xx   flac  0.7096  15 Truckin'.flac
     8:38.919     298897424 B   cxx   --   ---xx   flac  0.7028  16 Wharf Rat.flac
     8:17.612     286624352 B   cxx   --   ---xx   flac  0.6978  17 Throwing Stones.flac
     8:10.981     282805142 B   cxx   --   ---xx   flac  0.6915  18 Not Fade Away.flac
     0:55.523      31981274 B   cxx   --   ---xx   flac  0.6906  19 Not Fade Away.flac
     6:17.824     217626554 B   cxx   --   ---xx   flac  0.6908  20 Black Muddy River.flac
   143:30.574    4959691402 B                            0.6952  (20 files)


Show Checksums
ffp
01 Tuning.flac:f5946c85de26ed92b74a715cc8188a38
02 Hell In A Bucket.flac:5751fc4766e83f393d9f812dc592db94
03 Sugaree.flac:6ca6a431744d1df6c8f358969c2bc35f
04 New Minglewood Blues.flac:d553110ed3a69013b3dce7f79976e503
05 Loser.flac:e190b51cfe387131163722045b15ebff
06 Far From Me.flac:d026890536a41a1826c9b9c9f97f95ec
07 Desolation Row.flac:cb1ea2e966032a572223051924751479
08 Big Railroad Blues.flac:f85a82803b336d0f392a382022ddf51e
09 The Music Never Stopped.flac:d468ca4a54848efde12a7c7446a7e5e6
10 Touch Of Grey.flac:9488e6fe01649b7d50ec223c236ed8dc
11 Man Smart (Woman Smarter).flac:febb4235366802e6f3ad53e9d8c98b91
12 Terrapin Station.flac:d68a1968a4708c36164e1fa46f0ad7d8
13 Drums.flac:89635eed465e73b694ab3c05a3d84960
14 Space.flac:f8f3867a3eb65d1b664c31c781ba7e33
15 Truckin'.flac:c1881e96086b5dd6c4aac8449f4934b9
16 Wharf Rat.flac:0b705965e93b1c64b1fcb9df8ddbf797
17 Throwing Stones.flac:6cd744b7bb5228d165b374f58eadf59d
18 Not Fade Away.flac:9d85b2955ee89d8b3f51fac641d6c14b
19 Not Fade Away.flac:5e44c72c8845e8684b27240646d53a3f
20 Black Muddy River.flac:c29d50c2dc50d7b96e8594da67e1ae81
flac-md5
dfab3cb9350d0c7dfb37b0f54ac2f930 *01 Tuning.flac
435b95dd0c07d6492c7710ed445c8bb4 *02 Hell In A Bucket.flac
79aab2afef117874bd42f7ebd7b81a57 *03 Sugaree.flac
259b4c7f9c1e04f45a528889f44f2874 *04 New Minglewood Blues.flac
bb42d442d02bd0e7371bea304fc39e7d *05 Loser.flac
1ba07f365b079a67830c05b858099241 *06 Far From Me.flac
9111e21da7897dbf8f3dff5947eed294 *07 Desolation Row.flac
e08075960ee249bac8102ec98dd9e324 *08 Big Railroad Blues.flac
95da0f355595b1061a9e1ae11b72a9fc *09 The Music Never Stopped.flac
94c3f08aed55a9cbd0b1e20e88bc2fd7 *10 Touch Of Grey.flac
19b44ffc133dfac60eba021ccda0fad0 *11 Man Smart (Woman Smarter).flac
18d3e50d9876044ccb82d0817a76c711 *12 Terrapin Station.flac
f673b022f61c0f4c49e5f7159f9e8698 *13 Drums.flac
47dbf5210e01b70c2acc5f85f664c5f9 *14 Space.flac
658f1550443b1a336dd0e8d815e7215d *15 Truckin'.flac
063d97e9940559aa030b3c2c8f675d70 *16 Wharf Rat.flac
ff622cef5103beb9b2cc6cedf0789251 *17 Throwing Stones.flac
85f694f4740b767f8c25a4cf7323e84f *18 Not Fade Away.flac
176fafaecd6b6661f55343b84d661a07 *19 Not Fade Away.flac
2692f8cf895238c315becd3a114d44a4 *20 Black Muddy River.flac

Comments
Add Comment
Other Sources (comments)
SBD > ? > .shn; via David... (5) SOURCE: Pre-FM > Master... (4) (Re)fix of GDLive source.... (1) Seamless fix of (3) flac16; OTS AUD... (0) flac16; Source: 2... (0) flac16; Lineage:... (0) flac16; Recording... (1) flac24; Recording... (0) flac16; Recording... (0)
Date User Comment
02/06/2018 [email protected] Far From Me should be Ton Of Steel.