Browse Collections Artists Sources   Search Dates

Add Show    List Management    Help


Grateful Dead 10/09/80
Warfield Theater, San Francisco, CA
Comments Add Comment    Source Collectors    Add to Collection    Add to Want List    History
Source # 140924 Other Sources
Entered by Matt Vernon
Checksums flac-md5 , ffp
Disc Counts 0 / 0
Media Size
Date Circulated
Date Added
02/06/2018
02/06/2018
Source Summary flac16; Partial 1st Electric Set Source Info: Betty's 7" 2-track Master Soundboard Reel @ 7.5 ips > PCM; Transfer Info: PCM (Sony SL-10)> Sony PCM-601ESD > Behringer Ultramatch Pro > Tascam DA-3000 (wav 16-bit/44.1k)> Adobe Audition 3.0 > TLH flac16 
  Archive
Source Information - Download Text | Download Zip
Grateful Dead
Warfield Theatre
San Francisco, CA
Thursday October 9, 1980

Source Info:
Betty's 7" 2-track Master Soundboard Reel @ 7.5 ips > PCM

Transfer Info:
PCM (Sony SL-10)> Sony PCM-601ESD > Behringer Ultramatch Pro > Tascam DA-3000 (wav 16-bit/44.1k)> Adobe Audition 3.0 > TLH flac16

Notes:
- Thanks to Tim Dalton for the source PCM
- Thanks to Charlie Miller for the transfer
- Thanks to the folks responsible for the shnid11042 soundboard source which supplies the first 0:04 of "Feel Like A Stranger" as well as the final 0:42 of "Brown Eyed Women"
- Channels have been corrected
- Transitions smoothed

Mastered by Scott Clugston
February 5, 2018

1st Electric Set:
t01 - Feel Like a Stranger
t02 - Friend of the Devil
t03 - Mama Tried ->
t04 - Mexicali Blues
t05 - Peggy-O
t06 - Little Red Rooster
t07 - Brown Eyed Women
      Looks Like Rain (missing)
      Tennessee Jed (missing)
      The Music Never Stopped (missing)



    length     expanded size    cdr  WAVE problems  fmt   ratio  filename
     9:57.68      105470780 B   ---   --   ---xx   flac  0.5392  gd80-10-09 s1 t01 Feel Like A Stranger.flac
     9:49.23      103953740 B   ---   --   ---xx   flac  0.4794  gd80-10-09 s1 t02 Friend Of The Devil.flac
     2:27.26       25991996 B   ---   --   ---xx   flac  0.5415  gd80-10-09 s1 t03 Mama Tried.flac
     4:35.09       48531212 B   ---   --   ---xx   flac  0.5421  gd80-10-09 s1 t04 Mexicali Blues.flac
     6:51.73       72672140 B   ---   --   ---xx   flac  0.4768  gd80-10-09 s1 t05 Peggy O.flac
     8:48.26       93200396 B   ---   --   ---xx   flac  0.5222  gd80-10-09 s1 t06 Little Red Rooster.flac
     5:35.39       59185772 B   ---   --   ---xx   flac  0.5361  gd80-10-09 s1 t07 Brown Eyed Women.flac
    48:05.39      509006036 B                            0.5150  (7 files)

No errors occured.


Show Checksums
flac-md5
22286d6d913328f1996019590cca22a2 *gd80-10-09 s1 t01 Feel Like A Stranger.flac
814d088a703a0d813681cda09fdff7b9 *gd80-10-09 s1 t02 Friend Of The Devil.flac
41346de88b52eb0cf6586f396f3c7fd2 *gd80-10-09 s1 t03 Mama Tried.flac
c0b5e74b4652b152c06c11d6416dcf8c *gd80-10-09 s1 t04 Mexicali Blues.flac
6d010e51dd6c771bbdf35f9b9c0c4095 *gd80-10-09 s1 t05 Peggy O.flac
101df3d27a197416893985c3ddf691ed *gd80-10-09 s1 t06 Little Red Rooster.flac
555a476bf5c1e67f55cd311acd280572 *gd80-10-09 s1 t07 Brown Eyed Women.flac
ffp
gd80-10-09 s1 t01 Feel Like A Stranger.flac:62cac1e7a8de5ff7a164ebf2cfd2662a
gd80-10-09 s1 t02 Friend Of The Devil.flac:3a72265f229e43688e869c90593a7e73
gd80-10-09 s1 t03 Mama Tried.flac:9ae655022ef0626d934c54daebfcd311
gd80-10-09 s1 t04 Mexicali Blues.flac:61dfec30e73b6c0dc69ce9bdeb3e0465
gd80-10-09 s1 t05 Peggy O.flac:cece0d00bfdda54a81c762e528d1c8d8
gd80-10-09 s1 t06 Little Red Rooster.flac:96793916e30d0d5c3b107376755d9144
gd80-10-09 s1 t07 Brown Eyed Women.flac:6d262e521351be733d8d7873f0b0f4e1

Comments
Add Comment
Other Sources (comments)
labelled as SBD> R> DAT>... (2) Source: 7" 2-track BBD reel... (0) flac16; Source Info:... (0)
Date User Comment