Browse Collections Artists Sources   Search Dates

Add Show    List Management    Help


Grateful Dead 09/11/87
Capital Centre, Landover, MD
Comments Add Comment    Source Collectors    Add to Collection    Add to Want List    History
Source # 140925 Other Sources
Entered by Matt Vernon
Checksums flac-md5 , ffp
Disc Counts 0 / 0
Media Size
Date Circulated
Date Added
02/06/2018
02/06/2018
Source Summary flac16; Set 2 Source Info: UltraMatrix Soundboard > unknown cassette generations > PCM; Transfer Info: PCM (Sony SL-10)> Sony PCM-601ESD > Behringer Ultramatch Pro > Tascam DA-3000 (wav 16-bit/44.1k)> Adobe Audition 3.0 > TLH flac16 
  Archive
Source Information - Download Text | Download Zip
Grateful Dead
Capital Centre
Landover, MD
Friday September 11, 1987

Source Info:
UltraMatrix Soundboard > unknown cassette generations > PCM

Transfer Info:
PCM (Sony SL-10)> Sony PCM-601ESD > Behringer Ultramatch Pro > Tascam DA-3000 (wav 16-bit/44.1k)> Adobe Audition 3.0 > TLH flac16

Notes:
- Thanks to Tim Dalton for the source PCM
- Thanks to Charlie Miller for the transfer
- Thanks to the folks responsible for the shnid117662 Nakamichi 100 source which supplies a 0:00.46 patch in "Estimated Prophet"
- Thanks to the folks responsible for the shnid8906 Schoeps source which supplies a 0:56 patch in "Space", as well as the "Touch Of Grey" encore in its entirety

Mastered by Scott Clugston
February 5, 2018

Set 2:
t01 - Happy Birthday Mickey
t02 - Sugar Magnolia >
t03 - Sugaree
t04 - Estimated Prophet >
t05 - Eyes Of The World >
t06 - Drums >
t07 - Space >
t08 - Goin' Down The Road Feelin' Bad >
t09 - Dear Mr. Fantasy >
t10 - All Along The Watchtower >
t11 - Wharf Rat >
t12 - Sunshine Daydream
t13 - Encore Break
t14 - Touch Of Grey



    length     expanded size    cdr  WAVE problems  fmt   ratio  filename
     1:09.26       12232796 B   ---   --   ---xx   flac  0.5427  gd87-09-11 s2 t01 Happy Birthday Mickey.flac
     5:17.40       56012924 B   ---   --   ---xx   flac  0.5998  gd87-09-11 s2 t02 Sugar Magnolia.flac
    10:47.47      114241388 B   ---   --   ---xx   flac  0.5865  gd87-09-11 s2 t03 Sugaree.flac
    10:46.40      114048524 B   ---   --   ---xx   flac  0.5792  gd87-09-11 s2 t04 Estimated Prophet.flac
     7:29.48       79316540 B   ---   --   ---xx   flac  0.5855  gd87-09-11 s2 t05 Eyes Of The World.flac
     7:39.34       81047612 B   ---   --   ---xx   flac  0.5392  gd87-09-11 s2 t06 Drums.flac
     6:35.34       69758012 B   ---   --   ---xx   flac  0.4939  gd87-09-11 s2 t07 Space.flac
     6:39.26       70444796 B   ---   --   ---xx   flac  0.5879  gd87-09-11 s2 t08 Goin' Down The Road Feeling Bad.flac
     5:15.29       55634252 B   ---   --   ---xx   flac  0.6075  gd87-09-11 s2 t09 Dear Mr. Fantasy.flac
     4:01.49       42627692 B   ---   --   ---xx   flac  0.6252  gd87-09-11 s2 t10 All Along The Watchtower.flac
     9:04.22       96013388 B   ---   --   ---xx   flac  0.5595  gd87-09-11 s2 t11 Wharf Rat.flac
     3:42.03       39167900 B   ---   --   ---xx   flac  0.6194  gd87-09-11 s2 t12 Sunshine Daydream.flac
     0:30.73        5463740 B   ---   --   ---xx   flac  0.5486  gd87-09-11 s2 t13 Encore Break.flac
     6:30.54       68923052 B   ---   --   ---xx   flac  0.6392  gd87-09-11 s2 t14 Touch Of Grey.flac
    85:30.00      904932616 B                            0.5799  (14 files)

No errors occured.


Show Checksums
flac-md5
91ae0fe15fbcc26e3176a677b78c5c1f *gd87-09-11 s2 t01 Happy Birthday Mickey.flac
c415fbeb7954a8f4872a69f58915ac31 *gd87-09-11 s2 t02 Sugar Magnolia.flac
2b768853e8db2a57f25797ddb60bf69d *gd87-09-11 s2 t03 Sugaree.flac
716453417d4655a2d8d7506cfda1afc1 *gd87-09-11 s2 t04 Estimated Prophet.flac
626c59af7a4f11c58912aaa96884ba61 *gd87-09-11 s2 t05 Eyes Of The World.flac
6973d603952e8b22480906e6aa498951 *gd87-09-11 s2 t06 Drums.flac
a829ea20ebb6362f3c8aebd2cde6af95 *gd87-09-11 s2 t07 Space.flac
6c0e1c40b3eac53f9dca6a1d17226c26 *gd87-09-11 s2 t08 Goin' Down The Road Feeling Bad.flac
58abcb1a26ab58f67b9bbddcbfbebef8 *gd87-09-11 s2 t09 Dear Mr. Fantasy.flac
8f7db0d53abdb66ce6b8bf8ea69b61be *gd87-09-11 s2 t10 All Along The Watchtower.flac
4c708d030f58bd12210de3d5301d6557 *gd87-09-11 s2 t11 Wharf Rat.flac
1e03e5aa83fc1241b30f224fe601db34 *gd87-09-11 s2 t12 Sunshine Daydream.flac
b26cf4c6100512d0cbe6b22f527c1385 *gd87-09-11 s2 t13 Encore Break.flac
a3e8af766e8921ec1de171bbd4052cf2 *gd87-09-11 s2 t14 Touch Of Grey.flac
ffp
gd87-09-11 s2 t01 Happy Birthday Mickey.flac:4a84bc1b5dae25272e6031eb13dae94b
gd87-09-11 s2 t02 Sugar Magnolia.flac:271af303d194b9e599fcd48029aea7d3
gd87-09-11 s2 t03 Sugaree.flac:6c0b9aa9738f5123dbe1565f896d9f75
gd87-09-11 s2 t04 Estimated Prophet.flac:97bbc46105f05700a1642a9ade817339
gd87-09-11 s2 t05 Eyes Of The World.flac:1fec2c821eb9ca664f459bffce8477b6
gd87-09-11 s2 t06 Drums.flac:bb11882af54a1ad9775eeaebe68ed381
gd87-09-11 s2 t07 Space.flac:8813dc76d2d9384336ddfcfab551e777
gd87-09-11 s2 t08 Goin' Down The Road Feeling Bad.flac:bf04120dfe84d5e2b6df7c66979e497a
gd87-09-11 s2 t09 Dear Mr. Fantasy.flac:d6651f0f78fa7964f7bd2916af71f10c
gd87-09-11 s2 t10 All Along The Watchtower.flac:b00ed00f19ddf6be6d3ec1d114d4b577
gd87-09-11 s2 t11 Wharf Rat.flac:e7ea734d9c541860c4714454af3cb384
gd87-09-11 s2 t12 Sunshine Daydream.flac:d5b4d336e0a3c43521266424601b8045
gd87-09-11 s2 t13 Encore Break.flac:7482a5676f6535f78db502a3c0f74efb
gd87-09-11 s2 t14 Touch Of Grey.flac:a04b7099a3d2ed36826255d96bc27dcf

Comments
Add Comment
Other Sources (comments)
FOB Schoeps> PCM> D> CDR>... (1) flac16; Source:... (0) flac16; taper: Joe... (2) flac16; Master:... (0)
Date User Comment