Browse Collections Artists Sources   Search Dates

Add Show    List Management    Help


Grateful Dead 04/11/87
UIC Pavilion, Chicago, IL
Comments Add Comment    Source Collectors    Add to Collection    Add to Want List    History
Source # 140927 Other Sources
Entered by Matt Vernon
Checksums ffp , flac-md5
Disc Counts 0 / 0
Media Size Compressed: 895.13 MB (938610688 bytes)
Date Circulated
Date Added
02/06/2018
02/06/2018
Source Summary flac16; Recording Info: Ultra Matrix SBD > Cassette Master (TDK MA-R90); Transfer Info: Cassette Master (Nakamichi CR-7A) > Tascam DA-3000 (DSF 1-bit/5.8 MHz) > KORG AudioGate 4 > Samplitude Pro X3 Suite > FLAC/24; All Transfers and Mastering By Charlie Miller 
  Archive
Source Information - Download Text | Download Zip
Grateful Dead - April 11, 1987
UIC Pavilion - Chicago, IL

Recording Info:
Ultra Matrix SBD > Cassette Master (TDK MA-R90)

Transfer Info:
Cassette Master (Nakamichi CR-7A) > Tascam DA-3000 (DSF 1-bit/5.8 MHz) >
KORG AudioGate 4 > Samplitude Pro X3 Suite > FLAC/24
(1 Disc FLAC)

All Transfers and Mastering By Charlie Miller
[email protected]
February 5, 2018

Notes:
-- Two sets of masters were used to make this show complete
-- This file set is 16 bit

Set 1:
01 - Tuning
02 - Hell In A Bucket >
03 - Sugaree
04 - New Minglewood Blues
05 - Loser
06 - Tons Of Steel >
07 - Desolation Row
08 - Big Railroad Blues
09 - The Music Never Stopped

Set 2:
10 - Touch Of Grey >
11 - Man Smart (Women Smarter) >
12 - Terrapin Station >
13 - Drums >
14 - Space >
15 - Truckin' >
16 - Wharf Rat >
17 - Throwing Stones >
18 - Not Fade Away

Encore:
19 - Not Fade Away
20 - Black Muddy River


SHNTOOL OUTPUT:
    length     expanded size    cdr  WAVE problems  fmt   ratio  filename
     1:11.18       12566780 B   ---   --   ---xx   flac  0.5745  01 Tuning.flac
     5:52.05       62104604 B   ---   --   ---xx   flac  0.6579  02 Hell In A Bucket.flac
    10:37.38      112456220 B   ---   --   ---xx   flac  0.6279  03 Sugaree.flac
     8:02.67       85182428 B   ---   --   ---xx   flac  0.6365  04 New Minglewood Blues.flac
     9:32.20      100947884 B   ---   --   ---xx   flac  0.6032  05 Loser.flac
     5:05.43       53903180 B   ---   --   ---xx   flac  0.6590  06 Far From Me.flac
    12:00.10      127031564 B   ---   --   ---xx   flac  0.6258  07 Desolation Row.flac
     4:45.65       50426924 B   ---   --   ---xx   flac  0.6611  08 Big Railroad Blues.flac
     7:31.39       79648172 B   ---   --   ---xx   flac  0.6380  09 The Music Never Stopped.flac
     6:08.37       65002268 B   ---   --   ---xx   flac  0.6347  10 Touch Of Grey.flac
     7:38.42       80890028 B   ---   --   ---xx   flac  0.6375  11 Man Smart (Woman Smarter).flac
    11:25.39      120925772 B   ---   --   ---xx   flac  0.6019  12 Terrapin Station.flac
     6:30.62       68941868 B   ---   --   ---xx   flac  0.5211  13 Drums.flac
     8:17.74       87844892 B   ---   --   ---xx   flac  0.5354  14 Space.flac
     6:29.19       68664332 B   ---   --   ---xx   flac  0.6594  15 Truckin'.flac
     8:38.69       91537532 B   ---   --   ---xx   flac  0.6182  16 Wharf Rat.flac
     8:17.46       87779036 B   ---   --   ---xx   flac  0.6353  17 Throwing Stones.flac
     8:10.74       86610092 B   ---   --   ---xx   flac  0.6155  18 Not Fade Away.flac
     0:55.39        9793772 B   ---   --   ---xx   flac  0.6035  19 Not Fade Away.flac
     6:17.63       66651020 B   ---   --   ---xx   flac  0.6026  20 Black Muddy River.flac
   143:30.44     1518908368 B                            0.6179  (20 files)


Show Checksums
ffp
01 Tuning.flac:29cb0fdc7f34e1853c98cd690f25f92b
02 Hell In A Bucket.flac:8702c5b2bd746723f48f4433fe932d98
03 Sugaree.flac:00ea1bafa37a1b3da94b5949af00bc3b
04 New Minglewood Blues.flac:e6bf6a37e1fc715afb456f34509cc214
05 Loser.flac:a2547799d1593e3a281e4e9bc65d4159
06 Far From Me.flac:a925d264a82f8fc7b2e684cdf7ec83f3
07 Desolation Row.flac:c37fb7714b2876267f4dc6658cdc4980
08 Big Railroad Blues.flac:7fca7f8eccb7664b5ce73da51b33812a
09 The Music Never Stopped.flac:888eb95f32ff6b650134815f1422a43b
10 Touch Of Grey.flac:a157ebe76ca734df61ad612e1eb17af5
11 Man Smart (Woman Smarter).flac:f84a6c69ff65bcc66ada29359deaa3ce
12 Terrapin Station.flac:d67add260d5b801a90bc7955a0cf5f53
13 Drums.flac:5a8b5f8633b3f5e89ebc2e02a22677f6
14 Space.flac:e9e085061b7c771fa9f98d50e130ac26
15 Truckin'.flac:96a7b321176cf3951a39ee720ccb4b6f
16 Wharf Rat.flac:d1ce85b3040d28b1a0ae6f1026997dfa
17 Throwing Stones.flac:d520b6089b02a105b7a20998c6af195d
18 Not Fade Away.flac:cc5c589510d7041f7baeeea27bf2c9e6
19 Not Fade Away.flac:862f343d3a930311b40e25bfca85f09a
20 Black Muddy River.flac:0cbf17f97d821664d9acf8d0c16c9054
flac-md5
d5716618d71fd20fa93cc63221e65f65 *01 Tuning.flac
7364f062b142563255dd904b4f651cf0 *02 Hell In A Bucket.flac
54d49c407832250f571c47bbd365e7c6 *03 Sugaree.flac
216128ebec8cd563c6ec5dae9c67be06 *04 New Minglewood Blues.flac
be1adf94a95a187c1bf4cdc970f3b41e *05 Loser.flac
2d5f56945c588f2ea1d30f1a24c7078a *06 Far From Me.flac
e8132c0cf297c1a0ffc81a4d79b54d5f *07 Desolation Row.flac
9d6dd96bc5fe5bac032b9e8c881bf2d4 *08 Big Railroad Blues.flac
930aad743ae89922256356816209ce2a *09 The Music Never Stopped.flac
602e0b621c133c82eaca023324437af8 *10 Touch Of Grey.flac
f1c718bd6a4341c957410862874faa04 *11 Man Smart (Woman Smarter).flac
57ca3135961b23a0b29dbab2e9a8cf72 *12 Terrapin Station.flac
842f45922c5dd5e7d97fce52c96e0322 *13 Drums.flac
92ee2fa102b3e019e576cd0e642bb9b2 *14 Space.flac
31da747a3e0e4a59d1e743720b5fd0c1 *15 Truckin'.flac
13a8b3894aebf4b6d0011e63cbcf54c1 *16 Wharf Rat.flac
0f497cc9f4fcd24c64ce78468b286923 *17 Throwing Stones.flac
2897a287735b47e3379d386ee8fc094a *18 Not Fade Away.flac
8378386d6ffd8c4248b607479a423fc7 *19 Not Fade Away.flac
4fa1a7184622f8b7a230ec6ca81ab8eb *20 Black Muddy River.flac

Comments
Add Comment
Other Sources (comments)
SBD > ? > .shn; via David... (5) SOURCE: Pre-FM > Master... (4) (Re)fix of GDLive source.... (1) Seamless fix of (3) flac16; OTS AUD... (0) flac16; Source: 2... (0) flac16; Lineage:... (0) flac24; Recording... (1) flac24; Recording... (0) flac16; Recording... (0)
Date User Comment
02/06/2018 [email protected] Far From Me should be Ton Of Steel.