Browse Collections Artists Sources   Search Dates Setlists

Add Show    List Management    Forums    Help


Grateful Dead 03/15/69
Hilton Hotel, San Francisco, CA
Comments Add Comment    Source Collectors    Add to Collection    Add to Want List    History
Source # 140931 Other Sources
Entered by Matt Vernon
Checksums ffp , flac-md5
Disc Counts 0 / 0
Media Size
Uncompressed: 778.52 MB (816339568 bytes)
Date Circulated
Date Added
02/07/2018
02/06/2018
Source Summary flac16; Source: SBD > Bear's cassette > ??? > Sony ESXHiFi/L-750 beta tape; Transfer: PCM (Sony SL-10) > Sony PCM-601ESD > Behringer Ultramatch Pro > Tascam DA-3000 (wav 16-bit/44.1k); Lineage: wav > iZotope RX6 Advanced > iZotope Ozone 5 Advanced > CD Wave > TLH > Flac 16; edited and mastered SIRMick February 2018 
  Archive
Source Information - Download Text | Download Zip
Grateful Dead
Hilton Hotel
San Francisco, CA
03/15/1969


Source: SBD > Bear's cassette > ??? > Sony ESXHiFi/L-750 beta tape
Transfer: PCM (Sony SL-10) > Sony PCM-601ESD > Behringer Ultramatch Pro > Tascam DA-3000 (wav 16-bit/44.1k)
Lineage: wav > iZotope RX6 Advanced > iZotope Ozone 5 Advanced > CD Wave > TLH > Flac 16



01   banter and tuning
02   Hard To Handle
03   Good Morning Little Schoolgirl
04   Dark Star >
05   St. Stephen >
06   William Tell Bridge >
07   //The Eleven >
08   Turn On Your Love Light



Comments:

- The Black and White Ball (SF Symphony Benefit)
- First "Hard To Handle"



Notes:

- I repaired a few minor dropouts and one larger one was patched with shnid 28798 - Thank you Morgan and Seth Kaplan



Thanks to Charlie Miller for providing this source and doing the transfer.


I could listen to this over and over!



edited and mastered
SIRMick
February 2018


shntool output:

    length     expanded size    cdr  WAVE problems  fmt   ratio  filename
     3:20.31       35352956 B   ---   --   ---xx   flac  0.4685  gd1969-03-15t01.flac
     6:06.10       64585964 B   ---   --   ---xx   flac  0.5034  gd1969-03-15t02.flac
     9:02.59       95747612 B   ---   --   ---xx   flac  0.5050  gd1969-03-15t03.flac
    20:29.67      216953228 B   ---   --   ---xx   flac  0.5042  gd1969-03-15t04.flac
     5:49.44       61667132 B   ---   --   ---xx   flac  0.5100  gd1969-03-15t05.flac
     2:45.34       29186012 B   ---   --   ---xx   flac  0.5163  gd1969-03-15t06.flac
    11:10.73      118359740 B   ---   --   ---xx   flac  0.5313  gd1969-03-15t07.flac
    18:22.40      194486924 B   ---   --   ---xx   flac  0.5129  gd1969-03-15t08.flac
    77:07.58      816339568 B                            0.5096  (8 files)


Show Checksums
ffp
gd1969-03-15t01.flac:5c83b830d87054d09624ca7fbee6bb5a
gd1969-03-15t02.flac:64090bc23424e5bbeab0a12f28bd3db7
gd1969-03-15t03.flac:d61f9260dd0fa26220cd5635282fe0b1
gd1969-03-15t04.flac:d8c5972bed2a898e1c0486ff5184e5b6
gd1969-03-15t05.flac:d63a8e47044fb7468fd29c88d7be14ab
gd1969-03-15t06.flac:6aa8e922f6d816f80ae2804ed2eba610
gd1969-03-15t07.flac:7eacc3805a5547e29e88597eb393dd46
gd1969-03-15t08.flac:cc3c1e645a87f919f78d2c344e7b72d6
flac-md5
97a560e377be6ba17fd0d91498d4e2e0 *gd1969-03-15t01.flac
fbf5b47ff079ab19cb65918687ba076a *gd1969-03-15t02.flac
c5f524c95d565899a3e816d02ac26daa *gd1969-03-15t03.flac
11f1d82489c600551ae4f724de18cc15 *gd1969-03-15t04.flac
0ab87644e9cf96113d53bb0f42761db9 *gd1969-03-15t05.flac
2ce7ea2fd63e41eb3ef27cec85910238 *gd1969-03-15t06.flac
7d87beed0048865ea2e9798df910265e *gd1969-03-15t07.flac
983cfbc9c37a0e6a63a4864783694d36 *gd1969-03-15t08.flac

Comments
Add Comment
Other Sources (comments)
SBD> ?> boot CD> retrack>... (0) MSC> C> D> CD; This tape is... (1)
Date User Comment