Browse Collections Artists Sources   Search Dates

Add Show    List Management    Help


Grateful Dead 04/11/87
UIC Pavilion, Chicago, IL
Comments Add Comment    Source Collectors    Add to Collection    Add to Want List    History
Source # 140936 Other Sources
Entered by Matt Vernon
Checksums ffp , flac-md5
Disc Counts 0 / 0
Media Size
Date Circulated
Date Added
02/07/2018
02/07/2018
Source Summary flac24; Recording Info: FM (WXRT) > Cassette Master (TDK SA-X90); Transfer Info: Cassette Master (Nakamichi CR-7A) > Tascam DA-3000 (DSF 1-bit/5.8 MHz) > KORG AudioGate 4 > Samplitude Pro X3 Suite > FLAC/24; All Transfers and Mastering By Charlie Miller 
  Archive
Source Information - Download Text | Download Zip
Grateful Dead - April 11, 1987
UIC Pavilion - Chicago, IL

Recording Info:
FM (WXRT) > Cassette Master (TDK SA-X90)

Transfer Info:
Cassette Master (Nakamichi CR-7A) > Tascam DA-3000 (DSF 1-bit/5.8 MHz) >
KORG AudioGate 4 > Samplitude Pro X3 Suite > FLAC/24
(1 Disc FLAC)

All Transfers and Mastering By Charlie Miller
[email protected]
February 7, 2018

Notes:
-- Static in Man Smart (Woman Smarter)
-- Recorded at the show by The Grateful Dead sound crew

Set 1:
01 - Tuning
02 - Hell In A Bucket >
03 - Sugaree
04 - New Minglewood Blues
05 - Loser
06 - Tons Of Steel >
07 - Desolation Row
08 - Big Railroad Blues
09 - The Music Never Stopped

Set Break:
10 - Radio Station DJ's

Set 2:
11 - Touch Of Grey >
12 - Man Smart (Women Smarter) >
13 - Terrapin Station >
14 - Drums >
15 - Space >
16 - Truckin' >
17 - Wharf Rat >
18 - Throwing Stones >
19 - Not Fade Away

Encore:
20 - Not Fade Away
21 - Black Muddy River


SHNTOOL OUTPUT:
    length     expanded size    cdr  WAVE problems  fmt   ratio  filename
     1:28.696      51088946 B   cxx   --   ---xx   flac  0.7434  01 Tuning.flac
     5:51.282     202338644 B   cxx   --   ---xx   flac  0.7542  02 Hell In A Bucket.flac
    10:36.209     366456200 B   cxx   --   ---xx   flac  0.7529  03 Sugaree.flac
     8:00.718     276893822 B   cxx   --   ---xx   flac  0.7495  04 New Minglewood Blues.flac
     9:29.728     328163288 B   cxx   --   ---xx   flac  0.7445  05 Loser.flac
     5:04.057     175136966 B   cxx   --   ---xx   flac  0.7551  06 Tons Of Steel.flac
    11:51.413     409774136 B   cxx   --   ---xx   flac  0.7443  07 Desolation Row.flac
     4:43.652     163383392 B   cxx   --   ---xx   flac  0.7551  08 Big Railroad Blues.flac
     7:29.593     258965450 B   cxx   --   ---xx   flac  0.7512  09 The Music Never Stopped.flac
     1:23.757      48243968 B   cxx   --   ---xx   flac  0.7404  10 Radio Station DJ's.flac
     6:00.167     207455990 B   cxx   --   ---xx   flac  0.7440  11 Touch Of Grey.flac
     7:37.005     263235116 B   cxx   --   ---xx   flac  0.7470  12 Man Smart (Woman Smarter).flac
    11:24.841     394468178 B   cxx   --   ---xx   flac  0.7346  13 Terrapin Station.flac
     6:28.236     223623806 B   cxx   --   ---xx   flac  0.7075  14 Drums.flac
     8:20.670     288385934 B   cxx   --   ---xx   flac  0.7279  15 Space.flac
     6:22.467     220300838 B   cxx   --   ---xx   flac  0.7460  16 Truckin'.flac
     8:38.418     298608710 B   cxx   --   ---xx   flac  0.7365  17 Wharf Rat.flac
     8:17.507     286563836 B   cxx   --   ---xx   flac  0.7428  18 Throwing Stones.flac
     8:10.974     282800858 B   cxx   --   ---xx   flac  0.7428  19 Not Fade Away.flac
     0:55.307      31856624 B   cxx   --   ---xx   flac  0.7392  20 Not Fade Away.flac
     6:43.067     232166456 B   cxx   --   ---xx   flac  0.7391  21 Black Muddy River.flac
   144:57.761    5009911158 B                            0.7426  (21 files)


Show Checksums
ffp
01 Tuning.flac:8644b6818569c6505cd26e2cb4c1d435
02 Hell In A Bucket.flac:af2fd4d66b47204495dbe14141f5abcb
03 Sugaree.flac:7e2979b045ff781d87b0c61438cab6d2
04 New Minglewood Blues.flac:828e2d3a2242579675751e70844cac3f
05 Loser.flac:7adad487a042b18df95d37aca580ea72
06 Tons Of Steel.flac:258f968e2e03cacccb9202f0d660a870
07 Desolation Row.flac:dcc9566841bf5975d51810c6ee79d71e
08 Big Railroad Blues.flac:22fd42aca476ca6978b3b123d65139fb
09 The Music Never Stopped.flac:06bf86ccffd99f722af842a8aeb7f26b
10 Radio Station DJ's.flac:b34906367af382a1a37aae0fc0d0fc59
11 Touch Of Grey.flac:5001f2ab356a21ca2e2368daae33f939
12 Man Smart (Woman Smarter).flac:040c2806a618c9a3b595556d1c263546
13 Terrapin Station.flac:171a2e8eb536cea0ac08af5d577debdd
14 Drums.flac:e06c9c38088e0f548dde51a5b10a34ca
15 Space.flac:9598c6474e1110457da3312de46213ed
16 Truckin'.flac:3798a6330a198e13bed98c32fcb5e81e
17 Wharf Rat.flac:67b5f67909ee91620ab8e1f0e56e1441
18 Throwing Stones.flac:79bda464799779f1ffa8a9512709882f
19 Not Fade Away.flac:ce80e67e1c7ef0c3f71fcd07e79328c0
20 Not Fade Away.flac:d0ce0581041baf70caac0fd8ed40fb3f
21 Black Muddy River.flac:913671100c8a5f60804ab96a437e1895
flac-md5
d3b838ce1ad908e22f405ee8bb04114a *01 Tuning.flac
5a8212fecbf6ae6401426b959575c527 *02 Hell In A Bucket.flac
c9826009148b701ddf575423bb90d8d2 *03 Sugaree.flac
32471ae1687789927660e12227a6b86b *04 New Minglewood Blues.flac
e7c9f1356de9b2c71af67fcaa51fec43 *05 Loser.flac
adf60bdc6679800bc938531b51e03fbf *06 Tons Of Steel.flac
6bb1550543ef2a0dc5915c27a7a403f8 *07 Desolation Row.flac
0b739a093a324557f2a06631555cd9c9 *08 Big Railroad Blues.flac
69368dd73caa6a36d41335281e746524 *09 The Music Never Stopped.flac
a1d45f2b474d2ce99a4788044e44ea8e *10 Radio Station DJ's.flac
8374a3f5fcc6fe9998a80998331a41de *11 Touch Of Grey.flac
f9f39e34b8a186ce637f52a4135e959e *12 Man Smart (Woman Smarter).flac
a172709dcae79ed325dbe0515415372c *13 Terrapin Station.flac
eb85e5d1c467344df4f484c6f3c1185e *14 Drums.flac
8e705e2534fbc2a50ec4042c5d25171c *15 Space.flac
9864cd6eaccce418133f9387c08db81f *16 Truckin'.flac
b298ddbb32499c95e6e4b4bda4f474ee *17 Wharf Rat.flac
c0c17d18ab38c20635ad7b047244e815 *18 Throwing Stones.flac
b29b4c860fed9cc2ba4db42fcf69e197 *19 Not Fade Away.flac
afe41bd7c779fb88ea671083b702c7ec *20 Not Fade Away.flac
07fc59b9ef574a317eeb75f7798520c5 *21 Black Muddy River.flac

Comments
Add Comment
Other Sources (comments)
SBD > ? > .shn; via David... (5) SOURCE: Pre-FM > Master... (4) (Re)fix of GDLive source.... (1) Seamless fix of (3) flac16; OTS AUD... (0) flac16; Source: 2... (0) flac16; Lineage:... (0) flac24; Recording... (1) flac16; Recording... (1) flac16; Recording... (0)
Date User Comment