Browse Collections Artists Sources   Search Dates

Add Show    List Management    Help


Grateful Dead 04/11/87
UIC Pavilion, Chicago, IL
Comments Add Comment    Source Collectors    Add to Collection    Add to Want List    History
Source # 140941 Other Sources
Entered by Matt Vernon
Checksums ffp , flac-md5
Disc Counts 0 / 0
Media Size Compressed: 0.99 GB (1058254848 bytes)
Date Circulated
Date Added
02/08/2018
02/08/2018
Source Summary flac16; Recording Info: FM (WXRT) > Cassette Master (TDK SA-X90); Transfer Info: Cassette Master (Nakamichi CR-7A) > Tascam DA-3000 (DSF 1-bit/5.8 MHz) > KORG AudioGate 4 > Samplitude Pro X3 Suite > FLAC/24; All Transfers and Mastering By Charlie Miller 
  Archive
Source Information - Download Text | Download Zip
Grateful Dead - April 11, 1987
UIC Pavilion - Chicago, IL

Recording Info:
FM (WXRT) > Cassette Master (TDK SA-X90)

Transfer Info:
Cassette Master (Nakamichi CR-7A) > Tascam DA-3000 (DSF 1-bit/5.8 MHz) >
KORG AudioGate 4 > Samplitude Pro X3 Suite > FLAC/24
(1 Disc FLAC)

All Transfers and Mastering By Charlie Miller
[email protected]
February 7, 2018

Notes:
-- Static in Man Smart (Woman Smarter)
-- Recorded at the show by The Grateful Dead sound crew
-- This file set is 16 bit

Set 1:
01 - Tuning
02 - Hell In A Bucket >
03 - Sugaree
04 - New Minglewood Blues
05 - Loser
06 - Tons Of Steel >
07 - Desolation Row
08 - Big Railroad Blues
09 - The Music Never Stopped

Set Break:
10 - Radio Station DJ's

Set 2:
11 - Touch Of Grey >
12 - Man Smart (Women Smarter) >
13 - Terrapin Station >
14 - Drums >
15 - Space >
16 - Truckin' >
17 - Wharf Rat >
18 - Throwing Stones >
19 - Not Fade Away

Encore:
20 - Not Fade Away
21 - Black Muddy River


SHNTOOL OUTPUT:
    length     expanded size    cdr  WAVE problems  fmt   ratio  filename
     1:28.52       15645548 B   ---   --   ---xx   flac  0.6804  01 Tuning.flac
     5:51.21       61965836 B   ---   --   ---xx   flac  0.7123  02 Hell In A Bucket.flac
    10:36.16      112228076 B   ---   --   ---xx   flac  0.7081  03 Sugaree.flac
     8:00.53       84796700 B   ---   --   ---xx   flac  0.7053  04 New Minglewood Blues.flac
     9:29.55      100501004 B   ---   --   ---xx   flac  0.6931  05 Loser.flac
     5:04.04       53635052 B   ---   --   ---xx   flac  0.7162  06 Tons Of Steel.flac
    11:51.31      125493356 B   ---   --   ---xx   flac  0.6971  07 Desolation Row.flac
     4:43.49       50036492 B   ---   --   ---xx   flac  0.7234  08 Big Railroad Blues.flac
     7:29.45       79309484 B   ---   --   ---xx   flac  0.7112  09 The Music Never Stopped.flac
     1:23.56       14772956 B   ---   --   ---xx   flac  0.6734  10 Radio Station DJ's.flac
     6:00.13       63534620 B   ---   --   ---xx   flac  0.6964  11 Touch Of Grey.flac
     7:37.00       80614844 B   ---   --   ---xx   flac  0.7048  12 Man Smart (Woman Smarter).flac
    11:24.63      120805820 B   ---   --   ---xx   flac  0.6762  13 Terrapin Station.flac
     6:28.18       68485580 B   ---   --   ---xx   flac  0.5929  14 Drums.flac
     8:20.50       88317644 B   ---   --   ---xx   flac  0.6318  15 Space.flac
     6:22.35       67467164 B   ---   --   ---xx   flac  0.7081  16 Truckin'.flac
     8:38.32       91450508 B   ---   --   ---xx   flac  0.6787  17 Wharf Rat.flac
     8:17.38       87760220 B   ---   --   ---xx   flac  0.6991  18 Throwing Stones.flac
     8:10.73       86607740 B   ---   --   ---xx   flac  0.6984  19 Not Fade Away.flac
     0:55.23        9756140 B   ---   --   ---xx   flac  0.6833  20 Not Fade Away.flac
     6:43.06       71103356 B   ---   --   ---xx   flac  0.6827  21 Black Muddy River.flac
   144:57.58     1534288140 B                            0.6897  (21 files)


Show Checksums
ffp
01 Tuning.flac:afc748aec2534a01f31798a63a3ee4b9
02 Hell In A Bucket.flac:36d784401f1650f7036c7d7377ac0106
03 Sugaree.flac:a889af0236c7010b09906e04353808c1
04 New Minglewood Blues.flac:ebc42e6dea3ad67a657f51c1678cbfbb
05 Loser.flac:daa86f15a5fe4be334a1ba92e480e1bc
06 Tons Of Steel.flac:8b7c769470457f89cb46d49591ad6a16
07 Desolation Row.flac:97c310f4c33f30af193f54e36c6cb015
08 Big Railroad Blues.flac:a4f985496be247348e31c39f518342be
09 The Music Never Stopped.flac:393c6e259e895c2c3ed5ae518061521f
10 Radio Station DJ's.flac:a470514d6cfecb45f3fa29e8417c3170
11 Touch Of Grey.flac:b528c0430c09be4761ef702cdd87667f
12 Man Smart (Woman Smarter).flac:8f184ee0386f92993bf8731d2baacced
13 Terrapin Station.flac:03ffbd060af775a0d00f3167c27cefe8
14 Drums.flac:2395771ce1989f80f6e9cf0d2f99ff57
15 Space.flac:1c7c6f8846d1878fb3e4f741b6487b1f
16 Truckin'.flac:49a223070a7fe62e838af8c226943307
17 Wharf Rat.flac:744245e53ef2b2850a990367f3375084
18 Throwing Stones.flac:a73559b2ba8675a176cff5f31f424011
19 Not Fade Away.flac:95b862b63d4d418939061092765ee468
20 Not Fade Away.flac:867c5c99a0cb159e39501bbfc5219a75
21 Black Muddy River.flac:8260514c05ba63257466276c19450771
flac-md5
591699d5213d39a335827d49f70ad43d *01 Tuning.flac
d09f7cba8096e44c2658d8174e2a2dfd *02 Hell In A Bucket.flac
ac3ecde5e14e1de1bdc9093c5b534f71 *03 Sugaree.flac
5e9f307492996e55857eb58963c26774 *04 New Minglewood Blues.flac
56a4bc10f392d7828de392fb8e0a3bfb *05 Loser.flac
b1904c997fb1deeda21a59f1a70c6e2f *06 Tons Of Steel.flac
f96407ba4f5c2df6e40a390e9c1edb7a *07 Desolation Row.flac
ed9c1f454f9e4d5faf3b5c8644747d70 *08 Big Railroad Blues.flac
dfa6d86013edb15839f56fd1c2479471 *09 The Music Never Stopped.flac
33ee286c38d7594a5fc14c4db1b815f8 *10 Radio Station DJ's.flac
edc8021fda30097e9050d28a84cfb050 *11 Touch Of Grey.flac
f44c8ef7afd72ed73fce4b7d4f0a0892 *12 Man Smart (Woman Smarter).flac
9bc3d0f6ceac5cb87dc40e7bd7726f74 *13 Terrapin Station.flac
b686388ec976fc154415c4464d1df692 *14 Drums.flac
f73f7aa60789ed7fc99c83f73450e86a *15 Space.flac
575666d833685977ea061aabb235aca6 *16 Truckin'.flac
bbbf7d168c6e4b3883fe98368f9612fa *17 Wharf Rat.flac
e2c271ef0fc0bfc25645eb2c9c585bfa *18 Throwing Stones.flac
98c61f19d79768b62c13a6184e18b7cd *19 Not Fade Away.flac
ac003a549392aa731e8be2390048376f *20 Not Fade Away.flac
46ec98fc72f34533e58c3ceb4db4f03d *21 Black Muddy River.flac

Comments
Add Comment
Other Sources (comments)
SBD > ? > .shn; via David... (5) SOURCE: Pre-FM > Master... (4) (Re)fix of GDLive source.... (1) Seamless fix of (3) flac16; OTS AUD... (0) flac16; Source: 2... (0) flac16; Lineage:... (0) flac24; Recording... (1) flac16; Recording... (1) flac24; Recording... (0)
Date User Comment