Browse Collections Artists Sources   Search Dates

Add Show    List Management    Help


Grateful Dead 03/14/90
Capital Centre, Landover, MD
Comments Add Comment    Source Collectors    Add to Collection    Add to Want List    History
Source # 140959 Other Sources
Entered by Matt Vernon
Checksums flac-md5 , ffp
Disc Counts 0 / 0
Media Size
Date Circulated
Date Added
02/10/2018
02/10/2018
Source Summary flac24; Recording Info: Ultra Matrix SBD > Cassette Master (TDK MA-X90); Transfer Info: Cassette Master (Nakamichi CR-7A) > Tascam DA-3000 (DSF 1-bit/5.8 MHz) > KORG AudioGate 4 > Adobe Audition CC2015 > Samplitude Pro X3 Suite > FLAC/24; All Transfers and Mastering By Charlie Miller 
  Archive
Source Information - Download Text | Download Zip
Grateful Dead - March 14, 1990
Capital Centre - Landover, MD

Recording Info:
Ultra Matrix SBD > Cassette Master (TDK MA-X90)

Transfer Info:
Cassette Master (Nakamichi CR-7A) > Tascam DA-3000 (DSF 1-bit/5.8 MHz) >
KORG AudioGate 4 > Adobe Audition CC2015 > Samplitude Pro X3 Suite > FLAC/24
(1 Disc FLAC)

All Transfers and Mastering By Charlie Miller
[email protected]
February 10, 2018

Notes:
-- Two sets of masters were used to make this show complete

Set 1:
01 - Tuning
02 - Cold Rain And Snow >
03 - Feel Like A Stranger
04 - Never Trust A Woman
05 - Mama Tried >
06 - Big River
07 - Loose Lucy
08 - Stuck Inside Of Mobile With The Memphis Blues Again
09 - Row Jimmy
10 - Let It Grow

Set 2:
11 - Tuning
12 - Crazy Fingers >
13 - Playing In The Band >
14 - Uncle John's Band >
15 - Playing Jam >
16 - Drums >
17 - Space >
18 - Dear Mr. Fantasy >
19 - I Need A Miracle >
20 - Black Peter >
21 - Turn On Your Lovelight

Encore:
22 - Encore Break
23 - Black Muddy River


SHNTOOL OUTPUT:
    length     expanded size    cdr  WAVE problems  fmt   ratio  filename
     1:25.860      49455320 B   cxx   --   ---xx   flac  0.6174  01 Tuning.flac
     7:19.435     253114400 B   cxx   --   ---xx   flac  0.6473  02 Cold Rain And Snow.flac
     8:31.541     294647420 B   cxx   --   ---xx   flac  0.6554  03 Feel Like A Stranger.flac
     7:35.527     262383668 B   cxx   --   ---xx   flac  0.6476  04 Never Trust A Woman.flac
     2:32.317      87734540 B   cxx   --   ---xx   flac  0.6658  05 Mama Tried.flac
     6:36.125     228168224 B   cxx   --   ---xx   flac  0.6543  06 Big River.flac
     7:08.143     246610328 B   cxx   --   ---xx   flac  0.6587  07 Loose Lucy.flac
    10:42.662     370173638 B   cxx   --   ---xx   flac  0.6486  08 Stuck Inside Of Mobile With The Memphis Blues Again.flac
    10:56.520     378155852 B   cxx   --   ---xx   flac  0.6460  09 Row Jimmy.flac
    11:50.358     409165994 B   cxx   --   ---xx   flac  0.6496  10 Let It Grow.flac
     1:11.620      41253092 B   cxx   --   ---xx   flac  0.6234  11 Tuning.flac
     8:04.181     278888048 B   cxx   --   ---xx   flac  0.6561  12 Crazy Fingers.flac
    10:27.915     361679360 B   cxx   --   ---xx   flac  0.6573  13 Playing In The Band.flac
     8:06.504     280226288 B   cxx   --   ---xx   flac  0.6600  14 Uncle John's Band.flac
     7:17.053     251742464 B   cxx   --   ---xx   flac  0.6452  15 Playing Jam.flac
     7:36.589     262995320 B   cxx   --   ---xx   flac  0.6206  16 Drums.flac
     6:36.182     228200936 B   cxx   --   ---xx   flac  0.6301  17 Space.flac
     5:46.457     199559300 B   cxx   --   ---xx   flac  0.6631  18 Dear Mr Fantasy.flac
     4:16.102     147514658 B   cxx   --   ---xx   flac  0.6641  19 I Need A Miracle.flac
     7:55.047     273627380 B   cxx   --   ---xx   flac  0.6544  20 Black Peter.flac
     5:05.723     176096660 B   cxx   --   ---xx   flac  0.6482  21 Turn On Your Lovelight.flac
     1:23.613      48161324 B   cxx   --   ---xx   flac  0.6234  22 Encore Break.flac
     6:06.918     211345058 B   cxx   --   ---xx   flac  0.6421  23 Black Muddy River.flac
   154:32.393    5340899272 B                            0.6493  (23 files)


Show Checksums
flac-md5
158103def4260d06b6dbb2250a52e110 *01 Tuning.flac
8e36c6745c1325c22d42bfbf6496844c *02 Cold Rain And Snow.flac
e4adf85cf3d4e60636dc90f1acae7e7f *03 Feel Like A Stranger.flac
1cfe985f158a293dbda52b129b524448 *04 Never Trust A Woman.flac
359ab50032f7875b299deb4723f144f8 *05 Mama Tried.flac
16949b0019479d07c2a606ab6dce46de *06 Big River.flac
33812c9cafec9e5c28e1ff9a323c3197 *07 Loose Lucy.flac
9629311a534b83a81eb08d76a56cdd92 *08 Stuck Inside Of Mobile With The Memphis Blues Again.flac
814085f5add2dfe2736e18bb59fec90e *09 Row Jimmy.flac
97675ec62bcbc57851cdbc12bf6596ec *10 Let It Grow.flac
05846a25d824d88e0a68595b4f417618 *11 Tuning.flac
1ab2cced1529cb808fc61d71384228ce *12 Crazy Fingers.flac
7b475e70116b52ce77174a436e9dc453 *13 Playing In The Band.flac
1e69f1d65614196dda0e964eef02217b *14 Uncle John's Band.flac
a52585689caa41be8c0f71577cb80589 *15 Playing Jam.flac
1a47f13424618e6b568b4c34bcaa2edc *16 Drums.flac
435d0e99a45c72d2d285234086a4ee4b *17 Space.flac
14b262ece5481526b4deff5371d7e935 *18 Dear Mr Fantasy.flac
983cb66fd6bb295b35975370818dc09e *19 I Need A Miracle.flac
68c287ef91fbb8ba18b66bf92c70f1e5 *20 Black Peter.flac
50c46a30cd2bf865d99811632340d5d4 *21 Turn On Your Lovelight.flac
0b2e49a29897670f935385b27f3e48b1 *22 Encore Break.flac
2464dd2f44b7b122898a1cfd90510b1f *23 Black Muddy River.flac
ffp
01 Tuning.flac:a5d015f6dc715c024f409a56d62a6ddf
02 Cold Rain And Snow.flac:9b5b54eadf4e0d15d1841a060b5a6cd3
03 Feel Like A Stranger.flac:75444d9e8c0697dc4e3f1cc5c7c3ed98
04 Never Trust A Woman.flac:5eb1cae527b7193e3235408ef503e746
05 Mama Tried.flac:25fc21ff3d37881d078d517d28da2d1e
06 Big River.flac:91ef5a4e9d572d3f7dfb4901a7de8765
07 Loose Lucy.flac:12711b252414004c745d1e751c431c9f
08 Stuck Inside Of Mobile With The Memphis Blues Again.flac:c6878cb121d7745a036adb22378cb412
09 Row Jimmy.flac:df06bfd5b0e45a765e624aace7e48aef
10 Let It Grow.flac:5baf50d6fe4bd9fd2a7963a77210281d
11 Tuning.flac:38ee520c314a2d9dd122e82dcfc78dac
12 Crazy Fingers.flac:31a060f274f73bcc00ff4bdde46d4b73
13 Playing In The Band.flac:6b748e81aed9514dc8cfea3bbd777f55
14 Uncle John's Band.flac:e4813c362eb7a1eb061a74480003efe9
15 Playing Jam.flac:fbb197fb15222632a6479abd53c1ad64
16 Drums.flac:84ea88588e3e53c59d8c5e6b2e2a55f9
17 Space.flac:1fcb57dfd553c7e0532adf634f9c4ffa
18 Dear Mr Fantasy.flac:62960f5e1dc80635295c574ba72a4322
19 I Need A Miracle.flac:db055fd209c8205518917a88f1a1565d
20 Black Peter.flac:4b5f57f2c7877ebdf7a07db073aff834
21 Turn On Your Lovelight.flac:e6ecb4db6e0476b5f1a29428fc50c274
22 Encore Break.flac:1078209c2afe9a4a7ece853be4873e77
23 Black Muddy River.flac:f778a42cba6fae476be7272572cef45e

Comments
Add Comment
Other Sources (comments)
sbd>mc>dats>Soundforge... (0) flac16; Sennheiser... (0) flac16; MAV (Taped... (0) flac16; Matrix 2... (0) DTS Audio 5.1; SBD... (0) flac16; Unknown Mic... (0) flac16; Source:... (0) flac24; Master... (0) flac16; Master... (0) flac16; Recording... (0) flac16/48kHz; Ted... (0)
Date User Comment