Browse Collections Artists Sources   Search Dates

Add Show    List Management    Help


Garcia 07/26/80
Convention Hall, Asbury Park, NJ
Comments Add Comment    Source Collectors    Add to Collection    Add to Want List    History
Source # 140968 Other Sources
Entered by Joe Jupille
Checksums jgb1980-07-26.md5 , jgb1980-07-26.ffp
Disc Counts 0 / 0
Media Size Compressed: 350.63 MB (367656960 bytes)
Uncompressed: 627.91 MB (658412088 bytes)
Date Circulated
Date Added
02/11/2018
02/11/2018
Source Summary JGB; flac1644; Late Show; Sources: Matrix of SBD ID-139465 & AUD ID-102003. Transfer: WAV > Wavelab > CD-Wave > TLH > FLAC 1644 tagged, Andrew F. 02/2018 
Source Information - Download Text | Download Zip
JERRY GARCIA BAND
Convention Center Hall
Asbury Park NJ
07-26-1980
Late Show
*Matrix*

01 crowd
02 I'll Take a Melody
03 Deal
04 Russian Lullaby
05 Tangled Up in Blue
06 Encore: Dear Prudence

Sources: Matrix of SBD ID-139465 & AUD ID-102003.

Transfer: WAV > Wavelab > CD-Wave > TLH > FLAC 1644 tagged, Andrew F. 02/2018

Note: Patch from ID-18744 was added to the AUD portion, first 3:25 of the show.
Thanks to CBass for assistance with providing sources & thanks to all tapers!

    length     expanded size    cdr  WAVE problems  fmt   ratio  filename
     0:53.48        9462140 B   ---   --   ---xx   flac  0.4867  jgb1980-07-26t01.flac
    12:38.41      133807676 B   ---   --   ---xx   flac  0.5540  jgb1980-07-26t02.flac
     9:56.55      105263804 B   ---   --   ---xx   flac  0.5850  jgb1980-07-26t03.flac
    14:30.17      153508028 B   ---   --   ---xx   flac  0.5036  jgb1980-07-26t04.flac
    11:28.05      121375004 B   ---   --   ---xx   flac  0.5880  jgb1980-07-26t05.flac
    12:45.21      134995436 B   ---   --   ---xx   flac  0.5818  jgb1980-07-26t06.flac
    62:12.37      658412088 B                            0.5582  (6 files)

No errors occured.


Show Checksums
jgb1980-07-26.md5
d0f5a1661d34b25a33299124cd9947e8 *jgb1980-07-26t01.flac
68c8c068f4464738d08a8aab6a6210b7 *jgb1980-07-26t02.flac
871fd3fe5030fd34965ca6ac337ab035 *jgb1980-07-26t03.flac
7f762b60f09950bdf3f2660f37cf4904 *jgb1980-07-26t04.flac
d59d06a878a038a6790540c79a505667 *jgb1980-07-26t05.flac
b441fc6f73b65680fd5bebbb99b457a0 *jgb1980-07-26t06.flac
jgb1980-07-26.ffp
jgb1980-07-26t01.flac:9b6965654ceeea7b44279b82e78db354
jgb1980-07-26t02.flac:778daa00c025b8d4477eb708d49ee363
jgb1980-07-26t03.flac:8ddc5b5b61aaaedbb7d9b3649005f8d2
jgb1980-07-26t04.flac:b4c5e20e75d6a5d4ded2e131a9e9e4ba
jgb1980-07-26t05.flac:f97d9dc36d8a7d4648e4327fcc9f30ca
jgb1980-07-26t06.flac:73865886c58f1f3237dcbad94d1e339e

Comments
Add Comment
Other Sources (comments)
Jerry Garcia Band, Late... (4) JGB; flac1644; late show;... (2)
Date User Comment