Browse Collections Artists Sources   Search Dates

Add Show    List Management    Help


Grateful Dead 03/15/90
Capital Centre, Landover, MD
Comments Add Comment    Source Collectors    Add to Collection    Add to Want List    History
Source # 140983 Other Sources
Entered by Matt Vernon
Checksums ffp , flac-md5
Disc Counts 0 / 0
Media Size
Date Circulated
Date Added
02/11/2018
02/11/2018
Source Summary flac24; Recording Info: Ultra Matrix SBD > Cassette Master (TDK MA-X90); Transfer Info: Cassette Master (Nakamichi CR-7A) > Tascam DA-3000 (DSF 1-bit/5.8 MHz) > KORG AudioGate 4 > Adobe Audition CC2015 > Samplitude Pro X3 Suite > FLAC/24; All Transfers and Mastering By Charlie Miller 
  Archive
Source Information - Download Text | Download Zip
Grateful Dead - March 15, 1990
Capital Centre - Landover, MD

Recording Info:
Ultra Matrix SBD > Cassette Master (TDK MA-X90)

Transfer Info:
Cassette Master (Nakamichi CR-7A) > Tascam DA-3000 (DSF 1-bit/5.8 MHz) >
KORG AudioGate 4 > Adobe Audition CC2015 > Samplitude Pro X3 Suite > FLAC/24
(1 Disc FLAC)

All Transfers and Mastering By Charlie Miller
[email protected]
February 11, 2018

Notes:
-- Happy Birthday (for Phil) before China Cat Sunflower
-- Two sets of masters were used to make this show complete

Set 1:
01 - Tuning
02 - Jack Straw >
03 - Sugaree
04 - Easy To Love You
05 - Walkin' Blues
06 - Althea
07 - Just Like Tom Thumb's Blues
08 - Tennessee Jed
09 - Cassidy >
10 - Don't Ease Me In

Set 2:
11 - Tuning
12 - China Cat Sunflower >
13 - I Know You Rider
14 - Samson And Delilah >
15 - Terrapin Station >
16 - Drums >
17 - Space >
18 - I Will Take You Home >
19 - Wharf Rat >
20 - Throwing Stones >
21 - Not Fade Away

Encore:
22 - Encore Break
23 - Revolution


SHNTOOL OUTPUT:
    length     expanded size    cdr  WAVE problems  fmt   ratio  filename
     2:00.445      69376568 B   cxx   --   ---xx   flac  0.6303  01 Tuning.flac
     5:27.939     188893124 B   cxx   --   ---xx   flac  0.6579  02 Jack Straw.flac
    11:13.680     388039694 B   cxx   --   ---xx   flac  0.6535  03 Sugaree.flac
     6:31.838     225698546 B   cxx   --   ---xx   flac  0.6530  04 Easy To Love You.flac
     6:11.226     213826232 B   cxx   --   ---xx   flac  0.6535  05 Walkin' Blues.flac
     8:32.318     295095434 B   cxx   --   ---xx   flac  0.6413  06 Althea.flac
     6:57.260     240341912 B   cxx   --   ---xx   flac  0.6601  07 Just Like Tom Thumb's Blues.flac
     9:17.216     320956214 B   cxx   --   ---xx   flac  0.6592  08 Tennessee Jed.flac
     6:11.170     213793688 B   cxx   --   ---xx   flac  0.6657  09 Cassidy.flac
     3:49.826     132379610 B   cxx   --   ---xx   flac  0.6723  10 Don't Ease Me In.flac
     2:03.588      71186660 B   cxx   --   ---xx   flac  0.6217  11 Tuning.flac
     6:09.029     212560958 B   cxx   --   ---xx   flac  0.6594  12 China Cat Sunflower.flac
     6:53.889     238400258 B   cxx   --   ---xx   flac  0.6507  13 I Know You Rider.flac
     6:59.343     241541474 B   cxx   --   ---xx   flac  0.6544  14 Samson And Delilah.flac
    22:38.652     782583812 B   cxx   --   ---xx   flac  0.6428  15 Terrapin Station.flac
    10:09.798     351243650 B   cxx   --   ---xx   flac  0.6150  16 Drums.flac
    11:10.723     386336324 B   cxx   --   ---xx   flac  0.6365  17 Space.flac
     4:16.562     147779486 B   cxx   --   ---xx   flac  0.6629  18 I Will Take You Home.flac
    10:58.717     379421030 B   cxx   --   ---xx   flac  0.6420  19 Wharf Rat.flac
     8:54.410     307820000 B   cxx   --   ---xx   flac  0.6428  20 Throwing Stones.flac
     5:34.778     192832220 B   cxx   --   ---xx   flac  0.6449  21 Not Fade Away.flac
     3:48.247     131470208 B   cxx   --   ---xx   flac  0.4998  22 Encore Break.flac
     5:03.115     174594014 B   cxx   --   ---xx   flac  0.6680  23 Revolution.flac
   170:53.768    5906171116 B                            0.6448  (23 files)


Show Checksums
ffp
01 Tuning.flac:ebd66108cc6f70dcdeb3a5f3c83a15c4
02 Jack Straw.flac:b8ca84e3effc7115f56e8305da708c14
03 Sugaree.flac:79f39b9267495bb2e0868fe7f89158fa
04 Easy To Love You.flac:4bd0c6069f38e60febe6e370d85b508e
05 Walkin' Blues.flac:d79626f9b00534a75d30d0f13df79dee
06 Althea.flac:a0f8b353eb2d90d8ae884cbe2a758a9c
07 Just Like Tom Thumb's Blues.flac:447e68da75463a536ce73c4bf8640007
08 Tennessee Jed.flac:0f66c400b7b321d53d247445db180cfb
09 Cassidy.flac:f70df59f610a4c7d730111e73a06f862
10 Don't Ease Me In.flac:3fa2dd2d31919722aaf81d38e4013943
11 Tuning.flac:f65939a47d4068c70149b585b3b1f3a3
12 China Cat Sunflower.flac:ea01ca0947cf35dae3a66b88837f880f
13 I Know You Rider.flac:b23e5408aa1c67cc53bc0481e887993f
14 Samson And Delilah.flac:0f23a745e9178b10b6aabf1c9adf959e
15 Terrapin Station.flac:1c99ecb4248ebad59aefefd5b089e818
16 Drums.flac:3120fe910a3892a3fda1a9b14777a9d6
17 Space.flac:b6480163f9969599a0b81b65a4eaface
18 I Will Take You Home.flac:8614e7a79d8b9ac175e0581becc8aaf5
19 Wharf Rat.flac:9903549727eea33b532f52a6232f0696
20 Throwing Stones.flac:568bfaa89855c0636d1ea9f6a087a4fe
21 Not Fade Away.flac:7900836a3e75eeefe16c80d46b7d351e
22 Encore Break.flac:781523db10bf33cac2f5e1d7bd565750
23 Revolution.flac:f499b68cd34a205242d89d51f05d035a
flac-md5
409a99ff891e5a96683e0730688cb100 *01 Tuning.flac
43b98fa0a0a7a5873260bdf43254ff35 *02 Jack Straw.flac
7e6a915781ffa54e36e356c78dee83f4 *03 Sugaree.flac
1fc9c0e9d5b0c3ee61b827c80da4282a *04 Easy To Love You.flac
c4d1fafb5b931dcb74e70d215fb83416 *05 Walkin' Blues.flac
8a9a0db0dcc54534c10b65842a2f0438 *06 Althea.flac
5d4d04b78f460e90cc8bd7b99eb069f0 *07 Just Like Tom Thumb's Blues.flac
abd70de018cefba500258a746b087dfa *08 Tennessee Jed.flac
ed8e96236decd54b0889adb2a29b1068 *09 Cassidy.flac
cbcfff2fd827ce4578785a8fc79b9bbe *10 Don't Ease Me In.flac
6138d5fa2c5e14923a07f071f1eb6602 *11 Tuning.flac
be3050361068dfe4c226a4319ed45e43 *12 China Cat Sunflower.flac
7ff7ae1084833082745b669a216f5d7e *13 I Know You Rider.flac
7a5f122f0f8637a44a334d43a787009c *14 Samson And Delilah.flac
26c7475b8ef48e520a719561ee02eff2 *15 Terrapin Station.flac
76af1717bc5d1effa4d6ad17ef5eb494 *16 Drums.flac
4a0737f31ca763a150060c98ce5e4a3c *17 Space.flac
1d8507da56dc183b2bc3045233dd2540 *18 I Will Take You Home.flac
0e1abbe36959e0e5dbba3732e9ef490d *19 Wharf Rat.flac
5a4af5bd2d59d54f466e60a28f36f5d1 *20 Throwing Stones.flac
9e158739d27f32e8d9986051c7939006 *21 Not Fade Away.flac
6970940637a255d05b9e44ae29cba623 *22 Encore Break.flac
36e82051478eb3665e2d8a35064c9d61 *23 Revolution.flac

Comments
Add Comment
Other Sources (comments)
Nak 300's > Sony D-5... (2) flac16; Sennheiser... (1) flac16; Recording... (0) source: aud>?>Tascam... (0) flac16; Unknown Mic... (0) flac24; Master... (0) flac16; Master... (0) flac16; Recording... (0) flac16/48kHz; Ted... (0)
Date User Comment