Browse Collections Artists Sources   Search Dates

Add Show    List Management    Help


Grateful Dead 03/15/90
Capital Centre, Landover, MD
Comments Add Comment    Source Collectors    Add to Collection    Add to Want List    History
Source # 140985 Other Sources
Entered by Matt Vernon
Checksums ffp , flac-md5
Disc Counts 0 / 0
Media Size Compressed: 976.02 MB (1023434752 bytes)
Date Circulated
Date Added
02/11/2018
02/11/2018
Source Summary flac16; Recording Info: Ultra Matrix SBD > Cassette Master (TDK MA-X90); Transfer Info: Cassette Master (Nakamichi CR-7A) > Tascam DA-3000 (DSF 1-bit/5.8 MHz) > KORG AudioGate 4 > Adobe Audition CC2015 > Samplitude Pro X3 Suite > FLAC/24; All Transfers and Mastering By Charlie Miller 
  Archive
Source Information - Download Text | Download Zip
Grateful Dead - March 15, 1990
Capital Centre - Landover, MD

Recording Info:
Ultra Matrix SBD > Cassette Master (TDK MA-X90)

Transfer Info:
Cassette Master (Nakamichi CR-7A) > Tascam DA-3000 (DSF 1-bit/5.8 MHz) >
KORG AudioGate 4 > Adobe Audition CC2015 > Samplitude Pro X3 Suite > FLAC/24
(1 Disc FLAC)

All Transfers and Mastering By Charlie Miller
[email protected]
February 11, 2018

Notes:
-- Happy Birthday (for Phil) before China Cat Sunflower
-- Two sets of masters were used to make this show complete
-- This file set is 16 bit

Set 1:
01 - Tuning
02 - Jack Straw >
03 - Sugaree
04 - Easy To Love You
05 - Walkin' Blues
06 - Althea
07 - Just Like Tom Thumb's Blues
08 - Tennessee Jed
09 - Cassidy >
10 - Don't Ease Me In

Set 2:
11 - Tuning
12 - China Cat Sunflower >
13 - I Know You Rider
14 - Samson And Delilah >
15 - Terrapin Station >
16 - Drums >
17 - Space >
18 - I Will Take You Home >
19 - Wharf Rat >
20 - Throwing Stones >
21 - Not Fade Away

Encore:
22 - Encore Break
23 - Revolution


SHNTOOL OUTPUT:
    length     expanded size    cdr  WAVE problems  fmt   ratio  filename
     2:00.33       21245660 B   ---   --   ---xx   flac  0.4972  01 Tuning.flac
     5:27.70       57847484 B   ---   --   ---xx   flac  0.5856  02 Jack Straw.flac
    11:13.51      118837196 B   ---   --   ---xx   flac  0.5686  03 Sugaree.flac
     6:31.63       69120620 B   ---   --   ---xx   flac  0.5760  04 Easy To Love You.flac
     6:11.17       65484428 B   ---   --   ---xx   flac  0.5807  05 Walkin' Blues.flac
     8:32.24       90373292 B   ---   --   ---xx   flac  0.5641  06 Althea.flac
     6:57.20       73605884 B   ---   --   ---xx   flac  0.5849  07 Just Like Tom Thumb's Blues.flac
     9:17.16       98292476 B   ---   --   ---xx   flac  0.5852  08 Tennessee Jed.flac
     6:11.12       65472668 B   ---   --   ---xx   flac  0.6113  09 Cassidy.flac
     3:49.62       40541468 B   ---   --   ---xx   flac  0.6264  10 Don't Ease Me In.flac
     2:03.44       21800732 B   ---   --   ---xx   flac  0.4738  11 Tuning.flac
     6:09.03       65098700 B   ---   --   ---xx   flac  0.5948  12 China Cat Sunflower.flac
     6:53.66       73008476 B   ---   --   ---xx   flac  0.5845  13 I Know You Rider.flac
     6:59.26       73972796 B   ---   --   ---xx   flac  0.6004  14 Samson And Delilah.flac
    22:38.49      239666492 B   ---   --   ---xx   flac  0.5659  15 Terrapin Station.flac
    10:09.60      107568764 B   ---   --   ---xx   flac  0.5047  16 Drums.flac
    11:10.54      118315052 B   ---   --   ---xx   flac  0.5233  17 Space.flac
     4:16.42       45257228 B   ---   --   ---xx   flac  0.5582  18 I Will Take You Home.flac
    10:58.54      116198252 B   ---   --   ---xx   flac  0.5532  19 Wharf Rat.flac
     8:54.31       94270556 B   ---   --   ---xx   flac  0.5705  20 Throwing Stones.flac
     5:34.58       59054060 B   ---   --   ---xx   flac  0.5749  21 Not Fade Away.flac
     3:48.18       40261580 B   ---   --   ---xx   flac  0.4317  22 Encore Break.flac
     5:03.10       53472764 B   ---   --   ---xx   flac  0.6348  23 Revolution.flac
   170:53.58     1808766628 B                            0.5658  (23 files)


Show Checksums
ffp
01 Tuning.flac:e345aaaa31004ea349a6628a9427d762
02 Jack Straw.flac:b8c2560b3b6aa9ac7c98c7dad4df61e7
03 Sugaree.flac:d69936543af10c2be2d5f0d96d659d9f
04 Easy To Love You.flac:506ba01d7723085d73aa351b267d0186
05 Walkin' Blues.flac:9872b7c2497b28a428ac028a81421596
06 Althea.flac:56ee269f72dbe63ab8098076ece9c985
07 Just Like Tom Thumb's Blues.flac:34e4c009f7964abcf9a9627a5f16ea99
08 Tennessee Jed.flac:a1679a2e8db1397721136c7f35759c99
09 Cassidy.flac:ca01a4427ef03dc4a85c20a7a7ce8914
10 Don't Ease Me In.flac:c71ad7200422f6b00c9c2f41c91dfb62
11 Tuning.flac:e04b77809ad1a300afb44b5c19c687ab
12 China Cat Sunflower.flac:8f65aec01ba9da955912afa6838016be
13 I Know You Rider.flac:d04ff039aa9ca54265f3563552962bb0
14 Samson And Delilah.flac:eec8b252ad1a15e5dd44c518af43fa0a
15 Terrapin Station.flac:773fba1d041b86a624c46510d0700e1e
16 Drums.flac:415645c9df3b9ed59dc24a8b5df69cae
17 Space.flac:0b6ab081a828624ef450676db4d39cf7
18 I Will Take You Home.flac:99415d77f4c46e6b90a9f00d29328fc0
19 Wharf Rat.flac:ea7f602238cdffa6cd19b87537e35b9c
20 Throwing Stones.flac:247f38a1d50cd48972ede9231d0fbe96
21 Not Fade Away.flac:eea0885426a5933a4edb77ea37ccd6eb
22 Encore Break.flac:f29c7efa84739d68142e783ea1c8424c
23 Revolution.flac:619081d3bc0bc3844234f86da96edca1
flac-md5
a42df228113dcf509007b9b02c017252 *01 Tuning.flac
ddf3dbd3e76b3a0055584fd08a2007d6 *02 Jack Straw.flac
227dea215acc5c29d24a0dc9b0f339dd *03 Sugaree.flac
9257f441fe145780733b9a2d9cbc590e *04 Easy To Love You.flac
acd44708b8faa33a470faebeac647770 *05 Walkin' Blues.flac
d8e7f404da244fc90e478a79ad9c5299 *06 Althea.flac
81894f7fdec6e4d16caf6c5867c63e00 *07 Just Like Tom Thumb's Blues.flac
d8577d87f2d1235d50d4bf6d199475e4 *08 Tennessee Jed.flac
23692f65e4b54082313ffea0c2b03715 *09 Cassidy.flac
41f8c40c809dc43d19269c7b6acc20f2 *10 Don't Ease Me In.flac
8c371a3c29c64e0b87eed2d26c750911 *11 Tuning.flac
6e388d15697a9b40d4b12b176d0eeff5 *12 China Cat Sunflower.flac
fa3e7aa0e43678938944dc42b4946355 *13 I Know You Rider.flac
7f522d6c0dbef2d5910baddb74db0431 *14 Samson And Delilah.flac
992cfa69b11d80ddb65c52e049c2fc8a *15 Terrapin Station.flac
4db1fc2b28ca53046aa5a807e405a31d *16 Drums.flac
d6fe86f3c85eb8c170bba54398d92b86 *17 Space.flac
39ad704cb4b9d4855d2f57f721eb583b *18 I Will Take You Home.flac
5b06d48d397b20bd580dc35d9b51319b *19 Wharf Rat.flac
c37e08fff359639db79589bd76a52547 *20 Throwing Stones.flac
e4e732b1bb23ecfc244630a73fdae3c4 *21 Not Fade Away.flac
66dbb58c8a85e361ea0c692eb4daa364 *22 Encore Break.flac
c76601f0815e1e22a1206d3278472992 *23 Revolution.flac

Comments
Add Comment
Other Sources (comments)
Nak 300's > Sony D-5... (2) flac16; Sennheiser... (1) flac16; Recording... (0) source: aud>?>Tascam... (0) flac16; Unknown Mic... (0) flac24; Master... (0) flac16; Master... (0) flac24; Recording... (0) flac16/48kHz; Ted... (0)
Date User Comment