Browse Collections Artists Sources   Search Dates

Add Show    List Management    Help


Grateful Dead 04/12/89
Rosemont Horizon, Rosemont, IL
Comments Add Comment    Source Collectors    Add to Collection    Add to Want List    History
Source # 140990 Other Sources
Entered by Matt Vernon
Checksums ffp , flac-md5
Disc Counts 0 / 0
Media Size
Date Circulated
Date Added
02/11/2018
02/12/2018
Source Summary flac16; Set 2 Source Info: Ted Mattes' Master Audience PCM (Nakamichi DMP-100 deck); Schoeps CMC4/MK4 mics, ortf (OTS); Transfer Info: Master PCM (Sony SL-10)> Sony PCM 601ESD > Behringer Ultramatch Pro > Tascam DA-3000 (16 bit/44.1k)> Samplitude > Adobe Audition 3.0 > TLH flac16 
  Archive
Source Information - Download Text | Download Zip
Grateful Dead
Rosemont Horizon Arena
Rosemont, IL
Wednesday April 12, 1989

Source Info:
Ted Mattes' Master Audience PCM (Nakamichi DMP-100 deck); Schoeps CMC4/MK4 mics, ortf (OTS)

Transfer Info:
Master PCM (Sony SL-10)> Sony PCM 601ESD > Behringer Ultramatch Pro > Tascam DA-3000 (16 bit/44.1k)> Samplitude > Adobe Audition 3.0 > TLH flac16

Notes:
- Thanks to Ted Mattes for the PCM master
- Thanks to Charlie Miller for the transfer

Mastered by Scott Clugston
February 11, 2018

Set Two:
s2 t01 - Crowd/Tuning
s2 t02 - Touch Of Grey
s2 t03 - Truckin' >
s2 t04 - Smokestack Lightning >
s2 t05 - Spoonful >
s2 t06 - Smokestack Lightning >
s2 t07 - He's gone >
s2 t08 - Drums >
s2 t09 - Space >
s2 t10 - I Will Take You Home >
s2 t11 - All Along The Watchtower >
s2 t12 - Wharf Rat >
s2 t13 - Turn On Your Lovelight
s2 t14 - Encore Break
s2 t15 - Black Muddy River



    length     expanded size    cdr  WAVE problems  fmt   ratio  filename
     2:46.58       29418860 B   ---   --   ---xx   flac  0.4920  gd89-04-12 s2 t01 Crowd_Tuning.flac
     6:31.61       69115916 B   ---   --   ---xx   flac  0.5967  gd89-04-12 s2 t02 Touch Of Grey.flac
     6:30.73       68967740 B   ---   --   ---xx   flac  0.5954  gd89-04-12 s2 t03 Truckin'.flac
     2:45.11       29131916 B   ---   --   ---xx   flac  0.5869  gd89-04-12 s2 t04 Smokestack Lightning.flac
     4:07.60       43711964 B   ---   --   ---xx   flac  0.5669  gd89-04-12 s2 t05 Spoonful.flac
     0:42.16        7446476 B   ---   --   ---xx   flac  0.5952  gd89-04-12 s2 t06 Smokestack Lightning.flac
    14:40.10      155255564 B   ---   --   ---xx   flac  0.5661  gd89-04-12 s2 t07 He's Gone.flac
     8:53.46       94129436 B   ---   --   ---xx   flac  0.5388  gd89-04-12 s2 t08 Drums.flac
     8:06.61       85873916 B   ---   --   ---xx   flac  0.4646  gd89-04-12 s2 t09 Space.flac
     4:40.42       49490828 B   ---   --   ---xx   flac  0.4953  gd89-04-12 s2 t10 I Will Take You Home.flac
     5:19.15       56306924 B   ---   --   ---xx   flac  0.6076  gd89-04-12 s2 t11 All Along The Watchtower.flac
     9:39.23      102189740 B   ---   --   ---xx   flac  0.5719  gd89-04-12 s2 t12 Wharf Rat.flac
     6:23.31       67634156 B   ---   --   ---xx   flac  0.6081  gd89-04-12 s2 t13 Turn On Your Lovelight.flac
     3:20.27       35343548 B   ---   --   ---xx   flac  0.5938  gd89-04-12 s2 t14 Encore Break.flac
     6:48.27       72034748 B   ---   --   ---xx   flac  0.5353  gd89-04-12 s2 t15 Black Muddy River.flac
    91:16.36      966051732 B                            0.5584  (15 files)

No errors occured.


Show Checksums
ffp
gd89-04-12 s2 t01 Crowd_Tuning.flac:51b7533859748968c261541de3250432
gd89-04-12 s2 t02 Touch Of Grey.flac:52eb2103f60f99c3bab1cd4fe5088486
gd89-04-12 s2 t03 Truckin'.flac:593179890e1934f0fe07b8210e9f227e
gd89-04-12 s2 t04 Smokestack Lightning.flac:b53595edcd83ef165f9ebaf9800d55a9
gd89-04-12 s2 t05 Spoonful.flac:0431589bd2dc7b2fd0d2110014431731
gd89-04-12 s2 t06 Smokestack Lightning.flac:5ed148d6b23b4752daff0a7523202863
gd89-04-12 s2 t07 He's Gone.flac:187fcaac608be7a788581a83347fcddb
gd89-04-12 s2 t08 Drums.flac:f92373a3dd9ac68fa3afef0190ddb1d4
gd89-04-12 s2 t09 Space.flac:521967dbcaf6923d221bad39df43232a
gd89-04-12 s2 t10 I Will Take You Home.flac:ac56760a71f6783c422640fb954e2632
gd89-04-12 s2 t11 All Along The Watchtower.flac:391852c8d9dabada9ff0970be6290452
gd89-04-12 s2 t12 Wharf Rat.flac:987701249ce3b814a1e8d675d4da1545
gd89-04-12 s2 t13 Turn On Your Lovelight.flac:d32461757002cd3fd258247e1b7c5507
gd89-04-12 s2 t14 Encore Break.flac:4d8a32605714e91baf224746de0c47cf
gd89-04-12 s2 t15 Black Muddy River.flac:16496c4317e7aa07a4a4f8ffadbf74e9
flac-md5
151bbec8844f17174da75176294b8666 *gd89-04-12 s2 t01 Crowd_Tuning.flac
c0824d4f29b4d6fcae083ec6f8c06792 *gd89-04-12 s2 t02 Touch Of Grey.flac
065037672d8ed738ea79f312e2884101 *gd89-04-12 s2 t03 Truckin'.flac
7262536c329f313f9d43832ef2c08203 *gd89-04-12 s2 t04 Smokestack Lightning.flac
20b84c490b91501cd81bb4ba256dfcf2 *gd89-04-12 s2 t05 Spoonful.flac
bfdc52d91049fb40e791ed20cf116b11 *gd89-04-12 s2 t06 Smokestack Lightning.flac
31377b10158e7a3e3df21e61f2c3c3d1 *gd89-04-12 s2 t07 He's Gone.flac
16df7c0f3fcfbdfed586054613c5b823 *gd89-04-12 s2 t08 Drums.flac
02ab6c2c4c9a91940b1555af86d5e470 *gd89-04-12 s2 t09 Space.flac
23a52582d4a5c5ae0ba059e2162b1c22 *gd89-04-12 s2 t10 I Will Take You Home.flac
ccf73875cc02d361c0c4baa5b619a473 *gd89-04-12 s2 t11 All Along The Watchtower.flac
3b98d85c571eefcab103c3c3f02b6aa9 *gd89-04-12 s2 t12 Wharf Rat.flac
23cf8c67845872f22424d8420aa1fb30 *gd89-04-12 s2 t13 Turn On Your Lovelight.flac
4a8697f7a14205de09daad010c43cad6 *gd89-04-12 s2 t14 Encore Break.flac
c24de89c73d2de65368aacad432283d5 *gd89-04-12 s2 t15 Black Muddy River.flac

Comments
Add Comment
Other Sources (comments)
Ultramatrix (SBD/AUD mix)>... (1) Shntool fix by-disc by... (0) likely by-set shntool fix... (1) flac16; Recording... (0) flac16; Source:... (0) flac16; Master... (0) flac24; Master... (1)
Date User Comment