Browse Collections Artists Sources   Search Dates

Add Show    List Management    Help


Grateful Dead 04/13/89
Rosemont Horizon, Rosemont, IL
Comments Add Comment    Source Collectors    Add to Collection    Add to Want List    History
Source # 140991 Other Sources
Entered by Matt Vernon
Checksums ffp , flac-md5
Disc Counts 0 / 0
Media Size
Date Circulated
Date Added
02/11/2018
02/12/2018
Source Summary flac16; Source Info: Ted Mattes' Master Audience PCM (Nakamichi DMP-100 deck); Schoeps CMC4/MK4 mics, ortf (OTS); Transfer Info: Master PCM (Sony SL-10)> Sony PCM 601ESD > Behringer Ultramatch Pro > Tascam DA-3000 (16 bit/44.1k)> Samplitude > Adobe Audition 3.0 > TLH flac16 
  Archive
Source Information - Download Text | Download Zip
Grateful Dead
Rosemont Horizon Arena
Rosemont, IL
Thursday April 13, 1989

Source Info:
Ted Mattes' Master Audience PCM (Nakamichi DMP-100 deck); Schoeps CMC4/MK4 mics, ortf (OTS)

Transfer Info:
Master PCM (Sony SL-10)> Sony PCM 601ESD > Behringer Ultramatch Pro > Tascam DA-3000 (16 bit/44.1k)> Samplitude > Adobe Audition 3.0 > TLH flac16

Notes:
- Thanks to Ted Mattes for the PCM master
- Thanks to Charlie Miller for the transfer

Mastered by Scott Clugston
February 11, 2018

Set One:
t01 - Crowd/Tuning
t02 - Iko Iko
t03 - Greatest Story Ever Told
t04 - Peggy O
t05 - It's All Over Now
t06 - To Lay Me Down
t07 - Cassidy >
t08 - Don't Ease Me In

Set Two:
t09 - Crowd/Tuning
t10 - Foolish Heart >
t11 - Looks Like Rain >
t12 - Eyes Of The World >
t13 - Drums >
t14 - Space >
t15 - The Wheel >
t16 - I Need A Miracle >
t17 - Dear Mr. Fantasy >
t18 - Hey Jude >
t19 - Goin' Down The Road Feeling Bad >
t20 - Good Lovin'
t21 - Encore Break
t22 - It's All Over Now, Baby Blue



    length     expanded size    cdr  WAVE problems  fmt   ratio  filename
     1:40.52       17762348 B   ---   --   ---xx   flac  0.5040  gd89-04-13 t01 Crowd.flac
     6:46.66       71773676 B   ---   --   ---xx   flac  0.5712  gd89-04-13 t02 Iko Iko.flac
     5:01.74       53270492 B   ---   --   ---xx   flac  0.5462  gd89-04-13 t03 Greatest Story Ever Told.flac
     6:38.20       70254284 B   ---   --   ---xx   flac  0.5340  gd89-04-13 t04 Peggy O.flac
     9:46.44      103473932 B   ---   --   ---xx   flac  0.5548  gd89-04-13 t05 It's All Over Now.flac
     8:43.08       92276060 B   ---   --   ---xx   flac  0.5101  gd89-04-13 t06 To Lay Me Down.flac
     6:20.20       67079084 B   ---   --   ---xx   flac  0.5723  gd89-04-13 t07 Cassidy.flac
     3:30.35       37126364 B   ---   --   ---xx   flac  0.6049  gd89-04-13 t08 Don't Ease Me In.flac
     2:30.24       26516492 B   ---   --   ---xx   flac  0.4818  gd89-04-13 t09 Crowd.flac
     9:11.60       97337564 B   ---   --   ---xx   flac  0.5955  gd89-04-13 t10 Foolish Heart.flac
     8:13.31       87038156 B   ---   --   ---xx   flac  0.5718  gd89-04-13 t11 Looks Like Rain.flac
    11:33.19      122289932 B   ---   --   ---xx   flac  0.5764  gd89-04-13 t12 Eyes Of The World.flac
     9:25.43       99767180 B   ---   --   ---xx   flac  0.5147  gd89-04-13 t13 Drums.flac
     8:12.43       86889980 B   ---   --   ---xx   flac  0.4579  gd89-04-13 t14 Space.flac
     4:58.25       52626044 B   ---   --   ---xx   flac  0.5833  gd89-04-13 t15 The Wheel.flac
     4:05.45       43323884 B   ---   --   ---xx   flac  0.6267  gd89-04-13 t16 I Need A Miracle.flac
     4:50.25       51214844 B   ---   --   ---xx   flac  0.6204  gd89-04-13 t17 Dear Mr. Fantasy.flac
     2:32.60       26953964 B   ---   --   ---xx   flac  0.6032  gd89-04-13 t18 Hey Jude.flac
     5:28.20       57906284 B   ---   --   ---xx   flac  0.6064  gd89-04-13 t19 Goin' Down The Road Feeling Bad.flac
     6:55.16       73243676 B   ---   --   ---xx   flac  0.6126  gd89-04-13 t20 Good Lovin'.flac
     2:49.33       29889260 B   ---   --   ---xx   flac  0.6209  gd89-04-13 t21 Encore Break.flac
     7:37.38       80704220 B   ---   --   ---xx   flac  0.5617  gd89-04-13 t22 It's All Over Now, Baby Blue.flac
   136:52.51     1448717720 B                            0.5617  (22 files)

No errors occured.


Show Checksums
ffp
gd89-04-13 t01 Crowd.flac:f63acd42cf70c5a506739d4f6107de91
gd89-04-13 t02 Iko Iko.flac:546f244c58b6037d06f7a8639750933a
gd89-04-13 t03 Greatest Story Ever Told.flac:711ccd0d40309876dcc594a135867022
gd89-04-13 t04 Peggy O.flac:0d12846cda732d863e4f0390883f6ad8
gd89-04-13 t05 It's All Over Now.flac:ab6204d4a9a7a6bc3c4231db862e32b2
gd89-04-13 t06 To Lay Me Down.flac:3a351996a8be696d174d86afa0c99a61
gd89-04-13 t07 Cassidy.flac:e37643e689e25012393a41d1e32a94d5
gd89-04-13 t08 Don't Ease Me In.flac:5b58fe26423e8ad4dba0847586ff9b1f
gd89-04-13 t09 Crowd.flac:26acc8ff8aa114bc8bcf8310a588df27
gd89-04-13 t10 Foolish Heart.flac:7fa1f9af118931cd0afc4d07ec0256d9
gd89-04-13 t11 Looks Like Rain.flac:de5d450c7cd9f8fc16fc5b581e269d33
gd89-04-13 t12 Eyes Of The World.flac:1d93c9c290c4f74351f83acf836aac06
gd89-04-13 t13 Drums.flac:6e9ba84aa1000e4a0fd513895493bf9b
gd89-04-13 t14 Space.flac:a5315a24ae9cb25a469971741d2c6981
gd89-04-13 t15 The Wheel.flac:9dcd4a0482dd0d8392b5a5216e0f59d0
gd89-04-13 t16 I Need A Miracle.flac:295604190b7ce2e23aaa880bd36a2b15
gd89-04-13 t17 Dear Mr. Fantasy.flac:c443b75de094d8e1030b591e9b9b401a
gd89-04-13 t18 Hey Jude.flac:31b726f807b509ce447d49b8f133a610
gd89-04-13 t19 Goin' Down The Road Feeling Bad.flac:a3028f4fdb441bc171526e60ac72e549
gd89-04-13 t20 Good Lovin'.flac:d97e690244f7330928341e04544c8c46
gd89-04-13 t21 Encore Break.flac:19cdaba283c79e5c633c9966c696a8e1
gd89-04-13 t22 It's All Over Now, Baby Blue.flac:35d5bd2cc2729c57eae3190033e3bc52
flac-md5
dc591259b60edbf08536d73ccd1ab3ac *gd89-04-13 t01 Crowd.flac
13e7589f17aa9bc17d3b07a756468fc4 *gd89-04-13 t02 Iko Iko.flac
b2d452d344932d8d1ade7f5727e1875e *gd89-04-13 t03 Greatest Story Ever Told.flac
3900fce03d57cced0fc23c422004a61e *gd89-04-13 t04 Peggy O.flac
f9330d9596e5f9c0d133697bbe9b7b8c *gd89-04-13 t05 It's All Over Now.flac
ca89bf949595f7cd718da11645ab8cf4 *gd89-04-13 t06 To Lay Me Down.flac
1ec68306d52ffcd12b0e096e53a2692e *gd89-04-13 t07 Cassidy.flac
9f04e92259429e5e291e8ea55d8e43aa *gd89-04-13 t08 Don't Ease Me In.flac
94319bed9f944ef8b704faac551441ad *gd89-04-13 t09 Crowd.flac
087c92c577135df426934d54f0ce4544 *gd89-04-13 t10 Foolish Heart.flac
b1a88479c8dbd2220c6248e2ab60982f *gd89-04-13 t11 Looks Like Rain.flac
37edb08f60a5d4fd79ed2ce9c8aa0bfe *gd89-04-13 t12 Eyes Of The World.flac
25104daf4c652f0de301b17f6fc50a22 *gd89-04-13 t13 Drums.flac
a8137637aededf935cdbaf3f9d7409a4 *gd89-04-13 t14 Space.flac
cc44c0ad3985e0f17859baa7fba9b620 *gd89-04-13 t15 The Wheel.flac
71940c1f99a5acc5ed2bc97a5251968b *gd89-04-13 t16 I Need A Miracle.flac
7472e175d5ebab0dd8b348808b2e9ee4 *gd89-04-13 t17 Dear Mr. Fantasy.flac
57e8e7830ac212354dec1847196943af *gd89-04-13 t18 Hey Jude.flac
107b6e83128108908e3e4751ce277eb2 *gd89-04-13 t19 Goin' Down The Road Feeling Bad.flac
d3ced37d7714ab5c4b06c0b5a278b28e *gd89-04-13 t20 Good Lovin'.flac
261f8a0bd44ecf3caa5825ba46f1ed2e *gd89-04-13 t21 Encore Break.flac
efdb44c554b086a04a024161b4b50b54 *gd89-04-13 t22 It's All Over Now, Baby Blue.flac

Comments
Add Comment
Other Sources (comments)
SBD > MC > Dat > CDR > EAC... (3) flac16; Recording... (0) flac24; Master... (0) flac16; Master... (0) flac16; Source:... (0)
Date User Comment