Browse Collections Artists Sources   Search Dates

Add Show    List Management    Help


Grateful Dead 04/15/89
The Mecca, Milwaukee, WI
Comments Add Comment    Source Collectors    Add to Collection    Add to Want List    History
Source # 140992 Other Sources
Entered by Matt Vernon
Checksums flac-md5 , ffp
Disc Counts 0 / 0
Media Size
Date Circulated
Date Added
02/11/2018
02/12/2018
Source Summary flac16; Source Info: Ted Mattes' Master Audience PCM (Nakamichi DMP-100 deck); Schoeps CMC4/MK4 mics, ortf (OTS); Transfer Info: Master PCM (Sony SL-10)> Sony PCM 601ESD > Behringer Ultramatch Pro > Tascam DA-3000 (16 bit/44.1k)> Samplitude > Adobe Audition 3.0 > TLH flac16 
  Archive
Source Information - Download Text | Download Zip
Grateful Dead
The Mecca
Milwaukee, WI
Saturday April 15, 1989

Source Info:
Ted Mattes' Master Audience PCM (Nakamichi DMP-100 deck); Schoeps CMC4/MK4 mics, ortf (OTS)

Transfer Info:
Master PCM (Sony SL-10)> Sony PCM 601ESD > Behringer Ultramatch Pro > Tascam DA-3000 (16 bit/44.1k)> Samplitude > Adobe Audition 3.0 > TLH flac16

Notes:
- Thanks to Ted Mattes for the PCM master
- Thanks to Charlie Miller for the transfer

Mastered by Scott Clugston
February 11, 2018

Set One:
t01 - Crowd/Tuning
t02 - Mississippi Half-Step Uptown Toodeloo
t03 - Feel Like A Stranger >
t04 - Franklin's Tower >
t05 - Walkin' Blues
t06 - When Push Comes To Shove
t07 - Queen Jane Approximately
t08 - Blow Away
t09 - Promised Land

Set Two:
t10 - China Cat Sunflower >
t11 - I Know You Rider
t12 - Playin' In The Band >
t13 - Terrapin Station >
t14 - Drums >
t15 - Space >
t16 - I Will Take You Home >
t17 - All Along The Watchtower >
t18 - Morning Dew
t19 - Encore Break
t20 - One More Saturday Night



    length     expanded size    cdr  WAVE problems  fmt   ratio  filename
     1:37.20       17157884 B   ---   --   ---xx   flac  0.4560  gd89-04-15 t01 Crowd.flac
     6:57.12       73587068 B   ---   --   ---xx   flac  0.5438  gd89-04-15 t02 Mississippi Half-Step Uptown Toodeloo.flac
     7:45.65       82178924 B   ---   --   ---xx   flac  0.5430  gd89-04-15 t03 Feel Like A Stranger.flac
     8:40.23       91782140 B   ---   --   ---xx   flac  0.5482  gd89-04-15 t04 Franklin's Tower.flac
     7:38.26       80852396 B   ---   --   ---xx   flac  0.5248  gd89-04-15 t05 Walkin' Blues.flac
     5:45.74       61032092 B   ---   --   ---xx   flac  0.5299  gd89-04-15 t06 When Push Comes To Shove.flac
     8:25.06       89096156 B   ---   --   ---xx   flac  0.5237  gd89-04-15 t07 Queen Jane Approximately.flac
     9:46.18      103412780 B   ---   --   ---xx   flac  0.5337  gd89-04-15 t08 Blow Away.flac
     5:10.25       54742844 B   ---   --   ---xx   flac  0.5492  gd89-04-15 t09 Promised Land.flac
     5:19.33       56349260 B   ---   --   ---xx   flac  0.5614  gd89-04-15 t10 China Cat Sunflower.flac
     5:49.50       61681244 B   ---   --   ---xx   flac  0.5539  gd89-04-15 t11 I Know You Rider.flac
     8:01.56       84980156 B   ---   --   ---xx   flac  0.5449  gd89-04-15 t12 Playin' In The Band.flac
    13:09.12      139207868 B   ---   --   ---xx   flac  0.5371  gd89-04-15 t13 Terrapin Station.flac
    10:22.74      109894892 B   ---   --   ---xx   flac  0.4868  gd89-04-15 t14 Drums.flac
     7:40.24       81200492 B   ---   --   ---xx   flac  0.4286  gd89-04-15 t15 Space.flac
     4:36.47       48796988 B   ---   --   ---xx   flac  0.4345  gd89-04-15 t16 I Will Take You Home.flac
     6:08.59       65054012 B   ---   --   ---xx   flac  0.5558  gd89-04-15 t17 All Along The Watchtower.flac
    13:03.19      138165932 B   ---   --   ---xx   flac  0.5196  gd89-04-15 t18 Morning Dew.flac
     3:14.64       34372172 B   ---   --   ---xx   flac  0.5125  gd89-04-15 t19 Encore Break.flac
     5:36.69       59432732 B   ---   --   ---xx   flac  0.5734  gd89-04-15 t20 One More Saturday Night.flac
   144:50.26     1532978032 B                            0.5254  (20 files)

No errors occured.


Show Checksums
flac-md5
1ca41e1fcace2fdd0731353595b5a3ea *gd89-04-15 t01 Crowd.flac
ec83641c446cee1ba8f45646f2878843 *gd89-04-15 t02 Mississippi Half-Step Uptown Toodeloo.flac
69a7d21a88c9c0cbd167c560a30d1b98 *gd89-04-15 t03 Feel Like A Stranger.flac
d92073d28c74573d8114cd5a784fadb6 *gd89-04-15 t04 Franklin's Tower.flac
c288da97e6a3a7f2a4b86618debfcca6 *gd89-04-15 t05 Walkin' Blues.flac
d589ebfb9170fccc88a7f6cc13ba1135 *gd89-04-15 t06 When Push Comes To Shove.flac
82805e0880b3b0a8ace4cc6ad189a02d *gd89-04-15 t07 Queen Jane Approximately.flac
35a9bc687e23ba58884a8f62e23130b3 *gd89-04-15 t08 Blow Away.flac
f7bb00680145a4818be67b02ea80b861 *gd89-04-15 t09 Promised Land.flac
bc3ece84d39ef13caa78bdf529a6b3d5 *gd89-04-15 t10 China Cat Sunflower.flac
654f6049784e13ec59d586bf96c8173d *gd89-04-15 t11 I Know You Rider.flac
fe1108c371d56b483a9fe86c65a54b25 *gd89-04-15 t12 Playin' In The Band.flac
50be0abfa6b123db846b7131ef374729 *gd89-04-15 t13 Terrapin Station.flac
4f0fe19ee47fd48d06a2ba73816fd919 *gd89-04-15 t14 Drums.flac
cb04c9f5b0bd70bb602a43ced2ac601e *gd89-04-15 t15 Space.flac
a5ef04cb7ac8a6d984a8fef03944e358 *gd89-04-15 t16 I Will Take You Home.flac
2a8c676484991d851fd61baad43ef322 *gd89-04-15 t17 All Along The Watchtower.flac
9e1288de572de15bad28bcf375478388 *gd89-04-15 t18 Morning Dew.flac
7ab4038ced2db10e0eb2b04a8b10df63 *gd89-04-15 t19 Encore Break.flac
000bee239e49ba2a801d08c46c24bce9 *gd89-04-15 t20 One More Saturday Night.flac
ffp
gd89-04-15 t01 Crowd.flac:4cb48d4f10a28abfc692b4c15cda3c1f
gd89-04-15 t02 Mississippi Half-Step Uptown Toodeloo.flac:1f23588335001ef1f8ef94828ab5616b
gd89-04-15 t03 Feel Like A Stranger.flac:cc6a855b5bda1fd11bb384ee822c47a8
gd89-04-15 t04 Franklin's Tower.flac:60340b0e06c7eafc86204525e7acdb01
gd89-04-15 t05 Walkin' Blues.flac:0e80b2f4de84c1d8f053c2d235cebcf1
gd89-04-15 t06 When Push Comes To Shove.flac:7e5afc7beb7cdabfd5da62ccaa999125
gd89-04-15 t07 Queen Jane Approximately.flac:74ed20840151abdae3d6b7c7f66fa954
gd89-04-15 t08 Blow Away.flac:ed8021724766c90e2288ca945267191f
gd89-04-15 t09 Promised Land.flac:ac2963224cf9f059e22ea0489ec38e80
gd89-04-15 t10 China Cat Sunflower.flac:dd6661695041665bfb5e8369a4aeecfb
gd89-04-15 t11 I Know You Rider.flac:93813b7bc94830eecc5589e494d6a99b
gd89-04-15 t12 Playin' In The Band.flac:116f83da84f439c954086346312684e2
gd89-04-15 t13 Terrapin Station.flac:ba2eaa8047ebed25e45d96d4b596bb60
gd89-04-15 t14 Drums.flac:8f1e321d5d8c73962ce7e97782f4b140
gd89-04-15 t15 Space.flac:a8bcfab9b974201892aa134001543495
gd89-04-15 t16 I Will Take You Home.flac:3b376fdb98a136602c47d0a0110f2d4d
gd89-04-15 t17 All Along The Watchtower.flac:83033798ae9fc0fdab689c0e5505dd8d
gd89-04-15 t18 Morning Dew.flac:64fb392ddba8d818d991cf7fce478821
gd89-04-15 t19 Encore Break.flac:74a85f38b3f5359312992399ae764ef6
gd89-04-15 t20 One More Saturday Night.flac:f38e4fe87b77883b9fe322e60cd52b7a

Comments
Add Comment
Other Sources (comments)
Matrix DSBD (Panasonic... (4) flac16; Source: Dan... (1) flac16; Recording... (0) flac16; TAPER: Greg... (0) flac16: Recorded by... (0) flac24; Master... (0) flac16; Master... (0) flac16; Set One 2... (0) flac16; Source Info:... (0)
Date User Comment