Browse Collections Artists Sources   Search Dates

Add Show    List Management    Help


Grateful Dead 03/16/90
Capital Centre, Landover, MD
Comments Add Comment    Source Collectors    Add to Collection    Add to Want List    History
Source # 140993 Other Sources
Entered by Matt Vernon
Checksums ffp , flac-md5
Disc Counts 0 / 0
Media Size
Date Circulated
Date Added
02/11/2018
02/12/2018
Source Summary flac24; Recording Info: Ultra Matrix SBD > Cassette Master (TDK MA-X90); Transfer Info: Cassette Master (Nakamichi CR-7A) > Tascam DA-3000 (DSF 1-bit/5.8 MHz) > KORG AudioGate 4 > Adobe Audition CC2015 > Samplitude Pro X3 Suite > FLAC/24; All Transfers and Mastering By Charlie Miller 
  Archive
Source Information - Download Text | Download Zip
Grateful Dead - March 16, 1990
Capital Centre - Landover, MD

Recording Info:
Ultra Matrix SBD > Cassette Master (TDK MA-X90)

Transfer Info:
Cassette Master (Nakamichi CR-7A) > Tascam DA-3000 (DSF 1-bit/5.8 MHz) >
KORG AudioGate 4 > Adobe Audition CC2015 > Samplitude Pro X3 Suite > FLAC/24
(1 Disc FLAC)

All Transfers and Mastering By Charlie Miller
[email protected]
February 11, 2018

Notes:
-- Two sets of masters were used to make this show complete

Set 1:
01 - Tuning
02 - Let The Good Times Roll
03 - Touch Of Grey
04 - New Minglewood Blues
05 - Peggy-O
06 - Queen Jane Approximately
07 - Loser
08 - Black Throated Wind
09 - Bird Song
10 - Blow Away

Set 2:
11 - Scarlet Begonias >
12 - Estimated Prophet >
13 - Ship Of Fools >
14 - Man Smart (Woman Smarter) >
15 - Jam >
16 - Drums >
17 - Space >
18 - The Other One >
19 - Stella Blue >
20 - Sugar Magnolia

Encore:
21 - Encore Break
22 - The Last Time


SHNTOOL OUTPUT:
    length     expanded size    cdr  WAVE problems  fmt   ratio  filename
     0:10.348       5960204 B   cxx   --   ---xx   flac  0.6675  01 Tuning.flac
     3:56.795     136394222 B   cxx   --   ---xx   flac  0.6955  02 Let The Good Times Roll.flac
     6:28.715     223899968 B   cxx   --   ---xx   flac  0.6954  03 Touch Of Grey.flac
     8:31.755     294770780 B   cxx   --   ---xx   flac  0.6872  04 New Minglewood Blues.flac
     6:35.424     227764226 B   cxx   --   ---xx   flac  0.6942  05 Peggy-O.flac
     6:55.989     239609492 B   cxx   --   ---xx   flac  0.6893  06 Queen Jane Approximately.flac
     7:53.067     272486456 B   cxx   --   ---xx   flac  0.6831  07 Loser.flac
     6:38.609     229599044 B   cxx   --   ---xx   flac  0.6765  08 Black Throated Wind.flac
    14:25.732     498661778 B   cxx   --   ---xx   flac  0.6870  09 Bird Song.flac
    12:11.570     421384172 B   cxx   --   ---xx   flac  0.6801  10 Blow Away.flac
    11:15.736     389223980 B   cxx   --   ---xx   flac  0.6823  11 Scarlet Begonias.flac
    11:04.194     382576058 B   cxx   --   ---xx   flac  0.6879  12 Estimated Prophet.flac
     7:39.912     264909494 B   cxx   --   ---xx   flac  0.6865  13 Ship Of Fools.flac
     6:45.042     233304182 B   cxx   --   ---xx   flac  0.6863  14 Man Smart (Woman Smarter).flac
     5:37.277     194271338 B   cxx   --   ---xx   flac  0.6788  15 Jam.flac
     9:16.722     320672186 B   cxx   --   ---xx   flac  0.6529  16 Drums.flac
    10:15.245     354381206 B   cxx   --   ---xx   flac  0.6663  17 Space.flac
     7:16.093     251189498 B   cxx   --   ---xx   flac  0.6839  18 The Other One.flac
     8:51.939     306397016 B   cxx   --   ---xx   flac  0.6728  19 Stella Blue.flac
     8:16.607     286045874 B   cxx   --   ---xx   flac  0.6868  20 Sugar Magnolia.flac
     1:01.693      35535428 B   cxx   --   ---xx   flac  0.5249  21 Encore Break.flac
     5:34.141     192465488 B   cxx   --   ---xx   flac  0.6867  22 The Last Time.flac
   166:42.606    5761502090 B                            0.6811  (22 files)



Show Checksums
ffp
01 Tuning.flac:1cdf7ec0a02d5244e7ecd203159eb84a
02 Let The Good Times Roll.flac:ed1824ba51ab31e54b89f5f8b760b1ef
03 Touch Of Grey.flac:98e295483833ec541b2aa06ab01257ab
04 New Minglewood Blues.flac:2d82ac74ebd4ad7e4b0a21310c13ab67
05 Peggy-O.flac:917ca1742cecce19090411af5d9e99b3
06 Queen Jane Approximately.flac:e702debb5445ca157b77e429f401fddf
07 Loser.flac:4b5096e04653d8137e5bb8b190847892
08 Black Throated Wind.flac:fbab496ee6154c0502b722c7ebd00eec
09 Bird Song.flac:bfc1d6a39b2a157d8bdb08949da58374
10 Blow Away.flac:25985b2d8d0edb7cd91e705992bb8263
11 Scarlet Begonias.flac:1f1f6946adf28b2ea0d3d24fa6cc5c26
12 Estimated Prophet.flac:0bcf1742511a0adfc6544ba4055629b5
13 Ship Of Fools.flac:a49be4e4e4228db9bb52172ac32459be
14 Man Smart (Woman Smarter).flac:fcd1edf187db83755ecdca30b98c62a9
15 Jam.flac:f238195994711ce6fe3b98795ccb03f1
16 Drums.flac:b3d108ab5e8954c43ea9d147dc205e6c
17 Space.flac:5adac485a698ee6456cf6326676c058a
18 The Other One.flac:a9609215d616d4d022081bb0dfff4349
19 Stella Blue.flac:e6e1f3a9b169b79ca917fa4f7de71fba
20 Sugar Magnolia.flac:2f4d8481edcd5271447c58e57cda06df
21 Encore Break.flac:80aabe90d4c9b24028b886afaed8170e
22 The Last Time.flac:b3c714456298dbbbb7f6165645c616fe
flac-md5
416e5d70d702018b7b1d44796818b054 *01 Tuning.flac
3b3c5bbe158b17e1c5dc9c741354487a *02 Let The Good Times Roll.flac
7649cef976f92b3ae89342ace433fa94 *03 Touch Of Grey.flac
8ea65947af7ad44a85cad510ed5f8de5 *04 New Minglewood Blues.flac
c9eb31726212f7763360e3fa535d165c *05 Peggy-O.flac
0e686f90f0669548487d5fd3be797531 *06 Queen Jane Approximately.flac
3b35cd9bc4280d947a0ab24c49bd7093 *07 Loser.flac
3f7054ab74e783109db3d0ba66228358 *08 Black Throated Wind.flac
cd6396b434aac6bcadda36aab4641e16 *09 Bird Song.flac
b3dac558072a835f8d1205c30d0b081f *10 Blow Away.flac
415dcef186697e480fedef00ec7504c0 *11 Scarlet Begonias.flac
824a8649f1c4e15626881809f2f3b041 *12 Estimated Prophet.flac
fda5ff653dc81ac258eb5d4ef43122e0 *13 Ship Of Fools.flac
2679910c67be93547706102c150d410e *14 Man Smart (Woman Smarter).flac
7651c3ba2f3bf5771240df603d754ca6 *15 Jam.flac
87877876696551f793fedb90183032df *16 Drums.flac
778fc20e15fc1d2d56fc7cd78ec53884 *17 Space.flac
4bd81c5091bc8d505c0edbe58b3d558a *18 The Other One.flac
a53b8e9054883881c27fcff221133809 *19 Stella Blue.flac
2649936e3d9270b4bd882e636eb98c6f *20 Sugar Magnolia.flac
94bd3827e351f8566f948e3d57dce54a *21 Encore Break.flac
c41dc27c53f570f9effe414e143eda82 *22 The Last Time.flac

Comments
Add Comment
Other Sources (comments)
sbd > ? > cdr > eac > shn;... (4) flac16; Aud MC > CDR... (0) flac16; Seamless and... (6) flac16; Sennheiser... (3) flac16; Recording... (0) flac16; Unknown... (0) flac16; matrix of... (3) flac16; matrix of... (0) flac16; Source:... (0) flac24; Master... (0) flac16; Master... (0) flac16; Matrix 2... (0) DTS-Audio-CD 5.1... (0) flac16/48kHz; Rick... (0) flac16/48kHz; Rick... (0) flac16; Recording... (0) flac16/48kHz; Ted... (0)
Date User Comment