Browse Collections Artists Sources   Search Dates Setlists

Add Show    List Management    Forums    Help


Grateful Dead 03/28/69
Student Center, Modesto Jr. College, Modesto, CA
Comments Add Comment    Source Collectors    Add to Collection    Add to Want List    History
Source # 140994 Other Sources
Entered by Matt Vernon
Checksums ffp , flac-md5
Disc Counts 0 / 0
Media Size
Date Circulated
Date Added
02/12/2018
02/12/2018
Source Summary flac16; Recording Info: Bear's Master Soundboard Cassettes > Harvey Lubar's 1st generation Reels > Tim Dalton's PCM (Sony HG beta tape); Transfer Info: PCM (Sony SL-10)> Sony PCM-601ESD > Behringer Ultramatch Pro > Tascam DA-3000 (wav 16-bit/44.1k)> Adobe Audition 3.0 > TLH flac16 
  Archive
Source Information - Download Text | Download Zip
Grateful Dead
Student Center
Modesto Jr. College
Modesto, CA
Friday March 28, 1969

Recording Info:
Bear's Master Soundboard Cassettes > Harvey Lubar's 1st generation Reels > Tim Dalton's PCM (Sony HG beta tape)

Transfer Info:
PCM (Sony SL-10)> Sony PCM-601ESD > Behringer Ultramatch Pro > Tascam DA-3000 (wav 16-bit/44.1k)> Adobe Audition 3.0 > TLH flac16

Notes:
- Thanks to Harvey Lubar (R.I.P.) for the 1st generation reels
- Thanks to Tim Dalton for the source PCM
- Thanks to Charlie Miller for the transfer
- Thanks to Charlie Miller and Rob Bertrando for the shnid81543 soundboard source which supplies the final 0:18 of "The Eleven", as well as the first 1:12 of "Death Don't Have No Mercy"
- "Good Morning Little Schoolgirl" is clipped
- Pitch corrected

Mastered by Scott Clugston
February 12, 2018

Set 1:
t01 - //Good Morning Little Schoolgirl
t02 - "How 'bout these monitors Bear?...alright, just a taste"
t03 - Dark Star >
t04 - St. Stephen >
t05 - The Eleven >
t06 - Death Don't Have No Mercy
t07 - Turn On Your Lovelight

Set 2:
t08 - Tuning/Banter
t09 - Cryptical Envelopment >
      Drums >
t10 - The Other One >
t11 - Cryptical Envelopment



    length     expanded size    cdr  WAVE problems  fmt   ratio  filename
    11:46.63      124686620 B   ---   --   ---xx   flac  0.5337  gd69-03-28 t01 Good Morning Little Schoolgirl.flac
     1:22.04       14474252 B   ---   --   ---xx   flac  0.4995  gd69-03-28 t02 Tuning_Banter.flac
    22:55.51      242669996 B   ---   --   ---xx   flac  0.6019  gd69-03-28 t03 Dark Star.flac
     6:10.22       65319788 B   ---   --   ---xx   flac  0.6048  gd69-03-28 t04 St. Stephen.flac
    15:20.57      162422108 B   ---   --   ---xx   flac  0.6214  gd69-03-28 t05 The Eleven.flac
     9:56.43      105235580 B   ---   --   ---xx   flac  0.5721  gd69-03-28 t06 Death Don't Have No Mercy.flac
    22:26.27      237497948 B   ---   --   ---xx   flac  0.6040  gd69-03-28 t07 Turn On Your Lovelight.flac
     1:56.29       20530652 B   ---   --   ---xx   flac  0.5256  gd69-03-28 t08 Tuning_Banter.flac
     2:24.43       25502780 B   ---   --   ---xx   flac  0.5742  gd69-03-28 t09 Cryptical Envelopment.flac
     8:48.55       93268604 B   ---   --   ---xx   flac  0.6240  gd69-03-28 t10 The Other One.flac
    11:16.50      119364044 B   ---   --   ---xx   flac  0.5829  gd69-03-28 t11 Cryptical Envelopment.flac
   114:24.69     1210972372 B                            0.5922  (11 files)

No errors occured.


Show Checksums
ffp
gd69-03-28 t01 Good Morning Little Schoolgirl.flac:25b0bb22035ba2ff667512751f13b41e
gd69-03-28 t02 Tuning_Banter.flac:303f5c70dd5f9cff2515f6a2f0775283
gd69-03-28 t03 Dark Star.flac:4ef4c6119e0835161a3fe32efa3084d5
gd69-03-28 t04 St. Stephen.flac:f18c34a2786c741f5d0741f01e2b1217
gd69-03-28 t05 The Eleven.flac:45f501a3bfc90c714a5b1b7e28a86362
gd69-03-28 t06 Death Don't Have No Mercy.flac:cb3a4c373959f242c27b544ad63f71bf
gd69-03-28 t07 Turn On Your Lovelight.flac:62abae6be6f7b5f887d9cd568c00b91a
gd69-03-28 t08 Tuning_Banter.flac:089e58e9b60eeb82cae0e2a89314360d
gd69-03-28 t09 Cryptical Envelopment.flac:a3b707daa602ade8583c8253426b1d71
gd69-03-28 t10 The Other One.flac:2e1ae31b2815379917cbda5766d98aa2
gd69-03-28 t11 Cryptical Envelopment.flac:80d75d9bc2150118d35409b1f55edf06
flac-md5
4f7694d26bbf2529e4005e19a0ffbf75 *gd69-03-28 t02 Tuning_Banter.flac
3a8366dece59e047d148f6680cda524c *gd69-03-28 t03 Dark Star.flac
7f9693cab19d0687c9c069bb15aa185b *gd69-03-28 t04 St. Stephen.flac
dd6333d6c0e715bb9ba88b3950d18a07 *gd69-03-28 t05 The Eleven.flac
7167ae3359f97c5df2ffe243b4cedfa6 *gd69-03-28 t06 Death Don't Have No Mercy.flac
1379db268d0093ec50193c5639425e06 *gd69-03-28 t07 Turn On Your Lovelight.flac
06fe1add72b6ca501b76179868cc8de5 *gd69-03-28 t08 Tuning_Banter.flac
68bdc71e61e990db342fed21512a8947 *gd69-03-28 t09 Cryptical Envelopment.flac
041a4ab33a1273500345a69c94937545 *gd69-03-28 t10 The Other One.flac
a67f3045849f4bf5bdb81cc171644151 *gd69-03-28 t11 Cryptical Envelopment.flac

Comments
Add Comment
Other Sources (comments)
MSR> C> D> CD; via Frank Bove (0) flac16; Recording... (1) flac16; Source:... (0) flac24; SBD >>... (0) flac16; Recording... (0)
Date User Comment