Browse Collections Artists Sources   Search Dates

Add Show    List Management    Help


Grateful Dead 04/17/89
Metropolitan Sports Center, Minneapolis, MN
Comments Add Comment    Source Collectors    Add to Collection    Add to Want List    History
Source # 141003 Other Sources
Entered by Matt Vernon
Checksums ffp , flac-md5
Disc Counts 0 / 0
Media Size
Date Circulated
Date Added
02/13/2018
02/13/2018
Source Summary flac16; Source Info: Ted Mattes' Master Audience PCM (Nakamichi DMP-100 deck); Schoeps CMC4/MK4 mics, ortf (OTS); Transfer Info: Master PCM (Sony SL-10)> Sony PCM 601ESD > Behringer Ultramatch Pro > Tascam DA-3000 (16 bit/44.1k)> Adobe Audition 3.0 > TLH flac16 
  Archive
Source Information - Download Text | Download Zip
Grateful Dead
Metropolitan Sports Arena
Bloomington, MN
Monday April 17, 1989

Source Info:
Ted Mattes' Master Audience PCM (Nakamichi DMP-100 deck); Schoeps CMC4/MK4 mics, ortf (OTS)

Transfer Info:
Master PCM (Sony SL-10)> Sony PCM 601ESD > Behringer Ultramatch Pro > Tascam DA-3000 (16 bit/44.1k)> Adobe Audition 3.0 > TLH flac16

Notes:
- Thanks to Ted Mattes for the PCM master
- Thanks to Charlie Miller for the transfer
- Thanks to the folks responsible for the shnid117565 AKG 451 source which supplies a 0:00.8 patch in "Iko Iko"
- Wheel space included in "The Wheel"

Mastered by Scott Clugston
February 12, 2018

Set One:
t01 - Crowd/Tuning
t02 - Iko Iko >
t03 - New Minglewood Blues
t04 - Row Jimmy
t05 - Far From Me
t06 - Built to Last
t07 - Victim Or The Crime
t08 - Bertha

Set Two:
t09 - Crowd/Tuning
t10 - Cold Rain & Snow >
t11 - Samson & Delilah >
t12 - Crazy Fingers
t13 - Estimated Prophet >
t14 - Eyes Of The Worls >
t15 - Drums >
t16 - Space >
t17 - The Wheel >
t18 - Gimme Some Lovin' >
t19 - Wharf Rat >
t20 - Not Fade Away >
t21 - Not Fade Away Chant >
t22 - Knockin' On Heavens' Door


    length     expanded size    cdr  WAVE problems  fmt   ratio  filename
     2:09.73       22927340 B   ---   --   ---xx   flac  0.4187  gd89-04-17 t01 Crowd.flac
     7:12.34       76284812 B   ---   --   ---xx   flac  0.5454  gd89-04-17 t02 Iko Iko.flac
     9:13.02       97553948 B   ---   --   ---xx   flac  0.5149  gd89-04-17 t03 New Minglewood Blues.flac
    11:37.04      122960252 B   ---   --   ---xx   flac  0.5122  gd89-04-17 t04 Row Jimmy.flac
     5:13.67       55370828 B   ---   --   ---xx   flac  0.5422  gd89-04-17 t05 Far From Me.flac
     4:47.71       50793836 B   ---   --   ---xx   flac  0.5366  gd89-04-17 t06 Built To Last.flac
     6:13.72       65966588 B   ---   --   ---xx   flac  0.5324  gd89-04-17 t07 Victim Or The Crime.flac
     6:51.60       72641564 B   ---   --   ---xx   flac  0.5484  gd89-04-17 t08 Bertha.flac
     2:09.35       22837964 B   ---   --   ---xx   flac  0.4473  gd89-04-17 t09 Crowd.flac
     6:20.14       67064972 B   ---   --   ---xx   flac  0.5547  gd89-04-17 t10 Cold Rain & Snow.flac
     6:53.34       72933212 B   ---   --   ---xx   flac  0.5589  gd89-04-17 t11 Samson & Delilah.flac
     7:48.66       82710476 B   ---   --   ---xx   flac  0.5163  gd89-04-17 t12 Crazy Fingers.flac
     9:41.23      102542540 B   ---   --   ---xx   flac  0.5349  gd89-04-17 t13 Estimated Prophet.flac
     8:49.58       93452060 B   ---   --   ---xx   flac  0.5127  gd89-04-17 t14 Eyes Of The World.flac
     5:42.38       60418220 B   ---   --   ---xx   flac  0.4832  gd89-04-17 t15 Drums.flac
    10:50.39      114751772 B   ---   --   ---xx   flac  0.4451  gd89-04-17 t16 Space.flac
     4:21.24       46096892 B   ---   --   ---xx   flac  0.5198  gd89-04-17 t17 The Wheel.flac
     4:23.45       46499084 B   ---   --   ---xx   flac  0.5612  gd89-04-17 t18 Gimme Some Lovin'.flac
     9:16.12       98106668 B   ---   --   ---xx   flac  0.5247  gd89-04-17 t19 Wharf Rat.flac
     8:38.11       91401116 B   ---   --   ---xx   flac  0.5553  gd89-04-17 t20 Not Fade Away.flac
     3:16.03       34581500 B   ---   --   ---xx   flac  0.5598  gd89-04-17 t21 Not Fade Away Chant.flac
     8:27.19       89479532 B   ---   --   ---xx   flac  0.5467  gd89-04-17 t22 Knockin' On Heaven's Door.flac
   149:58.54     1587375176 B                            0.5236  (22 files)

No errors occured.


Show Checksums
ffp
gd89-04-17 t01 Crowd.flac:afc739d2b4922e521842cb84f3ae34e7
gd89-04-17 t02 Iko Iko.flac:3b55e562ccf7e7d850f132885ba20a51
gd89-04-17 t03 New Minglewood Blues.flac:4a6005e407bcb70407d8704ff8ef214e
gd89-04-17 t04 Row Jimmy.flac:4554d94eed169d806b9ff7aedc5f26a7
gd89-04-17 t05 Far From Me.flac:fa9f2fdfdb65206469bee5e27d35ce31
gd89-04-17 t06 Built To Last.flac:73caaa4fe2f278a646a317132eef3c1b
gd89-04-17 t07 Victim Or The Crime.flac:41147fd60c28a00e33d82f53a7d661e9
gd89-04-17 t08 Bertha.flac:86d92b99030f96c625489aba517b23e1
gd89-04-17 t09 Crowd.flac:ac2655a6b05d014803d1f78d151bf01f
gd89-04-17 t10 Cold Rain & Snow.flac:a145e3d00b74b98eeaa37d593e1d88fa
gd89-04-17 t11 Samson & Delilah.flac:3d628d0c8e46071598341a88f8da7d3d
gd89-04-17 t12 Crazy Fingers.flac:1f298a745f9b6549390f1237fbde42ea
gd89-04-17 t13 Estimated Prophet.flac:94a4ca054c2b3787bfd0e19cc6b3fb61
gd89-04-17 t14 Eyes Of The World.flac:b23a046b8de9a873a1fd0b71831f32b5
gd89-04-17 t15 Drums.flac:38ef1b504b1c211584c6e498c99f1842
gd89-04-17 t16 Space.flac:4b4d2d99fc94926ba4fabc7a2a7d3102
gd89-04-17 t17 The Wheel.flac:dc91c86848466c376e95c8474876c56e
gd89-04-17 t18 Gimme Some Lovin'.flac:88da22d56ab78b1d5a074283a27ff864
gd89-04-17 t19 Wharf Rat.flac:8d69d25d324932341d2ebc0476f8669a
gd89-04-17 t20 Not Fade Away.flac:0f6370928f772388d558cdef9a71cbb1
gd89-04-17 t21 Not Fade Away Chant.flac:5ec847b745e99a68edd9b1b956f70b3b
gd89-04-17 t22 Knockin' On Heaven's Door.flac:25fd39d9da6a9768639160db9833575d
flac-md5
0b09e325acfd69f9afe6541edca36867 *gd89-04-17 t01 Crowd.flac
4182379bbc8670156d5a28b7fe31d37c *gd89-04-17 t02 Iko Iko.flac
35a37410924671dcc4b4101a03d3ed77 *gd89-04-17 t03 New Minglewood Blues.flac
a7c5004e8c9323055da438abc0ab1437 *gd89-04-17 t04 Row Jimmy.flac
5bc1618c1d743872ff992e7af26ad807 *gd89-04-17 t05 Far From Me.flac
d378830f8217cd2b19565216e432b4ca *gd89-04-17 t06 Built To Last.flac
28ec1313112c92b312fd1664a3bbb77e *gd89-04-17 t07 Victim Or The Crime.flac
669f166e8446fbb6451ff4f244a36848 *gd89-04-17 t08 Bertha.flac
79a07c94fa6408069af34c52fa43f6db *gd89-04-17 t09 Crowd.flac
5daddc5042c05a88f0cf16bb9d3a25b7 *gd89-04-17 t10 Cold Rain & Snow.flac
19943b87c4974c30f8b5e9b9f81d69a7 *gd89-04-17 t11 Samson & Delilah.flac
cacb06ac4698ed0d31ed33b4a3a53ce3 *gd89-04-17 t12 Crazy Fingers.flac
7bae04ce0b44eb5f7bbe9d40aee2062e *gd89-04-17 t13 Estimated Prophet.flac
6096701fff2d315411b8fd84fee82952 *gd89-04-17 t14 Eyes Of The World.flac
dd5a44c1c99fd105ff36ae293c950bed *gd89-04-17 t15 Drums.flac
3ffadb072f4203384028022a66d927ab *gd89-04-17 t16 Space.flac
248eade6f79458457522ad351f734de1 *gd89-04-17 t17 The Wheel.flac
c043a32274f29c32369b523800de22eb *gd89-04-17 t18 Gimme Some Lovin'.flac
808662f5be15f662c48cfb08e6107558 *gd89-04-17 t19 Wharf Rat.flac
96067428c4087baaeec8bca0f692adc7 *gd89-04-17 t20 Not Fade Away.flac
df22cead253dcff9ddc9ab58f7333ed5 *gd89-04-17 t21 Not Fade Away Chant.flac
570a3ee909bea627f05b151127b001f0 *gd89-04-17 t22 Knockin' On Heaven's Door.flac

Comments
Add Comment
Other Sources (comments)
AUD>DAT>CDR; Seeded to... (1) Source - 1st set... (0) flac24; Master... (0) flac16; Master... (0) flac24; Recording... (0) flac16; Recording... (0)
Date User Comment