Browse Collections Artists Sources   Search Dates Setlists

Add Show    List Management    Forums    Help


Grateful Dead 02/14/69
Electric Factory, Philadelphia, PA
Comments Add Comment    Source Collectors    Add to Collection    Add to Want List    History
Source # 141006 Other Sources
Entered by Matt Vernon
Checksums ffp , flac-md5
Disc Counts 0 / 0
Media Size
Date Circulated
Date Added
02/14/2018
02/14/2018
Source Summary flac16; Source Info: Master Soundboard Cassette > Reel to Reel > PCM (Sony HG tape); Transfer Info: PCM (Sony SL-10)> Sony PCM-601ESD > Behringer Ultramatch Pro > Tascam DA-3000 (wav 16-bit/44.1k)> Adobe Audition 3.0 > TLH flac16 
  Archive
Source Information - Download Text | Download Zip
Grateful Dead
Electric Factory
Philadelphia, PA
Friday February 14, 1969

Source Info:
Master Soundboard Cassette > Reel to Reel > PCM (Sony HG tape)

Transfer Info:
PCM (Sony SL-10)> Sony PCM-601ESD > Behringer Ultramatch Pro > Tascam DA-3000 (wav 16-bit/44.1k)> Adobe Audition 3.0 > TLH flac16

Notes:
- Thanks to Tim Dalton for the source PCM
- Thanks to Charlie Miller for the transfer
- First few notes of "Good Morning Little Schoolgirl" clipped
- Beginning of "Dark Star" clipped
- Anomaly at 0:25 of Schoolgirl, which is also present on the previous version (shnid6286), has been minimized
- Pitch corrected
- Upgrade to what is in general circulation (2/18)

Mastered by Scott Clugston
February 14, 2018 - Happy Valentine's Day

Set One:
t01 - //Good Morning, Little Schoolgirl
t02 - "Ladies and Gentlemen, that's Bear"
t03 - //Dark Star >
t04 - St. Stephen >
t05 - The Eleven >
t06 - Turn On Your Lovelight

Set Two:
t07 - Morning Dew
t08 - Cryptical Envelopment >
t09 - The Other One >
t10 - Cryptical Envelopment >
t11 - Death Don't Have No Mercy



    length     expanded size    cdr  WAVE problems  fmt   ratio  filename
     9:58.21      105536636 B   ---   --   ---xx   flac  0.5380  gd69-02-14 t01 Good Morning Little Schoolgirl.flac
     1:36.27       16997948 B   ---   --   ---xx   flac  0.4837  gd69-02-14 t02 Ladies and Gentlemen that's Bear.flac
    19:03.29      201693452 B   ---   --   ---xx   flac  0.5788  gd69-02-14 t03 Dark Star.flac
     6:15.74       66324092 B   ---   --   ---xx   flac  0.5573  gd69-02-14 t04 St. Stephen.flac
    16:06.50      170520044 B   ---   --   ---xx   flac  0.5620  gd69-02-14 t05 The Eleven.flac
    13:06.48      138763340 B   ---   --   ---xx   flac  0.5508  gd69-02-14 t06 Turn On Your Lovelight.flac
    10:58.53      116195900 B   ---   --   ---xx   flac  0.5444  gd69-02-14 t07 Morning Dew.flac
     2:18.56       24474956 B   ---   --   ---xx   flac  0.5339  gd69-02-14 t08 Cryptical Envelopment.flac
     9:26.19       99887132 B   ---   --   ---xx   flac  0.5701  gd69-02-14 t09 The Other One.flac
    12:29.55      132253004 B   ---   --   ---xx   flac  0.5520  gd69-02-14 t10 Cryptical Envelopment.flac
    12:51.17      136044428 B   ---   --   ---xx   flac  0.5149  gd69-02-14 t11 Death Don't Have No Mercy.flac
   114:11.74     1208690932 B                            0.5521  (11 files)

No errors occured.


Show Checksums
ffp
gd69-02-14 t01 Good Morning Little Schoolgirl.flac:357ff37802281e61a10e2a453aa075f7
gd69-02-14 t02 Ladies and Gentlemen that's Bear.flac:7b7fc0bd1e6d39eeeabd562cf6854a78
gd69-02-14 t03 Dark Star.flac:b8fd7e783dae4db0de16f39ce8278b2b
gd69-02-14 t04 St. Stephen.flac:52f5211bbe5c978095553e5bee616f74
gd69-02-14 t05 The Eleven.flac:496e7872372c9bb476a860d4dd83ce95
gd69-02-14 t06 Turn On Your Lovelight.flac:daa762f9f2c78c701398e66dc725b436
gd69-02-14 t07 Morning Dew.flac:cd6a6329a3f4068fd12dbb8951b41b85
gd69-02-14 t08 Cryptical Envelopment.flac:1fbed80c584cdd39b1949610ad98c3b8
gd69-02-14 t09 The Other One.flac:6007e8d5dbab45439810143cd313372c
gd69-02-14 t10 Cryptical Envelopment.flac:2760fb89090c4556327157faefd671d6
gd69-02-14 t11 Death Don't Have No Mercy.flac:584234915b72f44ae2979a10614e77d6
flac-md5
bac6507e929d327b82fb9cb5e4d91aee *gd69-02-14 t01 Good Morning Little Schoolgirl.flac
f8793daca15ddc0b5882f67e6e1e9109 *gd69-02-14 t02 Ladies and Gentlemen that's Bear.flac
0476e78806f729b36c78b50359787191 *gd69-02-14 t03 Dark Star.flac
d449cfd307ce94a931109d3fc395132d *gd69-02-14 t04 St. Stephen.flac
7ce34677feba468f80afc7ca0f5f459e *gd69-02-14 t05 The Eleven.flac
616e01c27d65390e076daffed67f6c15 *gd69-02-14 t06 Turn On Your Lovelight.flac
017e0c57f1fcdc455d6967af6bffa757 *gd69-02-14 t07 Morning Dew.flac
01b126a832274c7a7c6925e077ef4a8e *gd69-02-14 t08 Cryptical Envelopment.flac
7292007369c04960ad9b08532af7707c *gd69-02-14 t09 The Other One.flac
02a0e8306fb5c57fa61337351847a2a3 *gd69-02-14 t10 Cryptical Envelopment.flac
ca2d116e466b9bc99a0ad9796e978f1a *gd69-02-14 t11 Death Don't Have No Mercy.flac

Comments
Add Comment
Other Sources (comments)
SBD> MC> C> C(?)> D> CD>... (0)
Date User Comment