Browse Collections Artists Sources   Search Dates

Add Show    List Management    Help


Grateful Dead 04/30/89
Irvine Meadows, Irvine, CA
Comments Add Comment    Source Collectors    Add to Collection    Add to Want List    History
Source # 141010 Other Sources
Entered by Matt Vernon
Checksums ffp , flac-md5
Disc Counts 0 / 0
Media Size
Date Circulated
Date Added
02/14/2018
02/14/2018
Source Summary flac16; Set 1 Source Info: Ted Mattes' Master Audience PCM (Nakamichi DMP-100 deck); Schoeps CMC4/MK4 mics, ortf (OTS); Transfer Info: Master PCM (Sony SL-10)> Sony PCM 601ESD > Behringer Ultramatch Pro > Tascam DA-3000 (16 bit/44.1k)> Adobe Audition 3.0 > TLH flac16 
  Archive
Source Information - Download Text | Download Zip
Grateful Dead
Irvine Meadows
Laguna Hills, CA
Sunday April 30, 1989

Source Info:
Ted Mattes' Master Audience PCM (Nakamichi DMP-100 deck); Schoeps CMC4/MK4 mics, ortf (OTS)

Transfer Info:
Master PCM (Sony SL-10)> Sony PCM 601ESD > Behringer Ultramatch Pro > Tascam DA-3000 (16 bit/44.1k)> Adobe Audition 3.0 > TLH flac16

Notes:
- Thanks to Ted Mattes for the PCM master
- Thanks to Charlie Miller for the transfer
- This 1st set is brought to you by "As Seen On TV"'s "The Clapper". Close to 500 claps were removed and several hundred others  were minimized. At least he didn't sing too loud. Don't be deterred, it's a nice listen

Mastered by Scott Clugston
February 13, 2018

Set One:
t01 - Crowd/Tuning
t02 - Mississippi Half-Step Uptown Toodeloo >
t03 - Wang Dang Doodle
t04 - Stagger Lee
t05 - When I Paint My Masterpiece
t06 - Tennessee Jed
t07 - We Can Run
t08 - Picasso Moon >
t09 - Deal



    length     expanded size    cdr  WAVE problems  fmt   ratio  filename
     1:03.07       11129708 B   ---   --   ---xx   flac  0.4051  gd89-04-30 s1 t01 Crowd.flac
     7:31.72       79725788 B   ---   --   ---xx   flac  0.5502  gd89-04-30 s1 t02 Mississippi Half-Step Uptown Toodeloo.flac
     7:41.46       81428636 B   ---   --   ---xx   flac  0.5242  gd89-04-30 s1 t03 Wang Dang Doodle.flac
     5:31.68       58548380 B   ---   --   ---xx   flac  0.5247  gd89-04-30 s1 t04 Stagger Lee.flac
     5:57.44       63078332 B   ---   --   ---xx   flac  0.5206  gd89-04-30 s1 t05 When I Paint My Masterpiece.flac
     8:30.73       90135740 B   ---   --   ---xx   flac  0.5143  gd89-04-30 s1 t06 Tennessee Jed.flac
     5:35.19       59138732 B   ---   --   ---xx   flac  0.5232  gd89-04-30 s1 t07 We Can Run.flac
     5:34.50       59035244 B   ---   --   ---xx   flac  0.5478  gd89-04-30 s1 t08 Picasso Moon.flac
     8:28.06       89625356 B   ---   --   ---xx   flac  0.5673  gd89-04-30 s1 t09 Deal.flac
    55:55.10      591845916 B                            0.5324  (9 files)

No errors occured.


Show Checksums
ffp
gd89-04-30 s1 t01 Crowd.flac:9b85c3aaca5b684deefaf33c61bde315
gd89-04-30 s1 t02 Mississippi Half-Step Uptown Toodeloo.flac:d12f7efd83013baab689db7ea0188bad
gd89-04-30 s1 t03 Wang Dang Doodle.flac:2a253343f7b4c89ccabc941c6af87bfb
gd89-04-30 s1 t04 Stagger Lee.flac:2d2db919cecdb6cde2277611d11d01b2
gd89-04-30 s1 t05 When I Paint My Masterpiece.flac:007002c53c0779418c4e6d2ace8ed365
gd89-04-30 s1 t06 Tennessee Jed.flac:1a322b8048696a454a97a67d8e6c32cc
gd89-04-30 s1 t07 We Can Run.flac:a8af3e6b3ed7f8ca61b0e24449313732
gd89-04-30 s1 t08 Picasso Moon.flac:9833ce59aec3c1b77edd2ca166fe9cd7
gd89-04-30 s1 t09 Deal.flac:645bcb1ec5750e87515d7ddd20924802
flac-md5
fea0e3843b41b4e000ebac07bef20865 *gd89-04-30 s1 t01 Crowd.flac
5022b49b7cc8bb6a6e3b489f829d4dd4 *gd89-04-30 s1 t02 Mississippi Half-Step Uptown Toodeloo.flac
8a2a0f373740fcf99d4b0d927e24683a *gd89-04-30 s1 t03 Wang Dang Doodle.flac
f7b0ff72ea4ce411b16b5201a67adb7b *gd89-04-30 s1 t04 Stagger Lee.flac
d58da7cedde7d3394065bdf64b795555 *gd89-04-30 s1 t05 When I Paint My Masterpiece.flac
b923a2437ddf6f43cf002fcc491e6e6a *gd89-04-30 s1 t06 Tennessee Jed.flac
a107d496e9179e233d616749aa476cb5 *gd89-04-30 s1 t07 We Can Run.flac
2d529b040b2474ddc09904f5a7f4f2a4 *gd89-04-30 s1 t08 Picasso Moon.flac
54fe17b3f2215e2408382f81aa2fd152 *gd89-04-30 s1 t09 Deal.flac

Comments
Add Comment
Other Sources (comments)
Master Soundboard Cassette... (0) flac16; Recording... (0) flac16; FOB AUD:... (0)
Date User Comment