Browse Collections Artists Sources   Search Dates

Add Show    List Management    Help


Grateful Dead 10/12/83
Madison Square Garden, New York, NY
Comments Add Comment    Source Collectors    Add to Collection    Add to Want List    History
Source # 141012 Other Sources
Entered by Matt Vernon
Checksums ffp , flac-md5
Disc Counts 0 / 0
Media Size Compressed: 579.52 MB (607666176 bytes)
Date Circulated
Date Added
02/14/2018
02/14/2018
Source Summary flac16; Partial Show Recording Info: AKG Mics (m/s) > Cassette Master (Sony TC-D5M/TDK MA-R90/Dolby B); Transfer Info: Cassette Master (Nakamichi CR-7A/Dolby B) > Tascam DA-3000 (DSF 1-bit/5.8 MHz) > KORG AudioGate 4 > Samplitude Pro X3 Suite > FLAC/24; All Transfers and Mastering By Charlie Miller 
  Archive
Source Information - Download Text | Download Zip
Grateful Dead - October 12, 1983
Madison Square Garden - New York, NY

Recording Info:
AKG Mics (m/s) > Cassette Master (Sony TC-D5M/TDK MA-R90/Dolby B)

Transfer Info:
Cassette Master (Nakamichi CR-7A/Dolby B) > Tascam DA-3000 (DSF 1-bit/5.8 MHz) >
KORG AudioGate 4 > Samplitude Pro X3 Suite > FLAC/24
(1 Disc FLAC)

All Transfers and Mastering By Charlie Miller
[email protected]
January 22, 2018

Notes:
-- Recorded by The Grateful Dead crew at the sound booth
-- This may be from Dan Healy's AKG 414's but I can not confirm
-- This file set is 16 bit

Set 1:
01 - Cold Rain And Snow
02 - New Minglewood Blues
03 - Ramble On Rose
04 - My Brother Esau
05 - It Must Have Been The Roses
06 - Cassidy
07 - Cumberland Blues >
08 - Looks Like Rain >
09 - Might As Well

Set 2:
10 - Tuning
11 - Help On The Way >
12 - Slipknot! >
13 - Franklin's Tower//


SHNTOOL OUTPUT:
    length     expanded size    cdr  WAVE problems  fmt   ratio  filename
     6:56.05       73394204 B   ---   --   ---xx   flac  0.6550  01 Cold Rain And Snow.flac
     9:20.33       98861660 B   ---   --   ---xx   flac  0.6460  02 New Minglewood Blues.flac
     7:05.29       75038252 B   ---   --   ---xx   flac  0.6448  03 Ramble On Rose.flac
     6:14.05       65985404 B   ---   --   ---xx   flac  0.6155  04 My Brother Esau.flac
     5:35.16       59131676 B   ---   --   ---xx   flac  0.6289  05 It Must Have Been The Roses.flac
     6:09.32       65166908 B   ---   --   ---xx   flac  0.6702  06 Cassidy.flac
     9:36.20      101653484 B   ---   --   ---xx   flac  0.6812  07 Cumberland Blues.flac
     8:27.31       89507756 B   ---   --   ---xx   flac  0.6160  08 Looks Like Rain.flac
     4:39.31       49288556 B   ---   --   ---xx   flac  0.6771  09 Might As Well.flac
     0:18.40        3269324 B   ---   --   ---xx   flac  0.5415  10 Tuning.flac
     3:58.55       42112604 B   ---   --   ---xx   flac  0.6717  11 Help On The Way.flac
     9:26.13       99873020 B   ---   --   ---xx   flac  0.6644  12 Slipknot!.flac
     9:58.61      105630716 B   ---   --   ---xx   flac  0.6785  13 Franklin's Tower.flac
    87:45.71      928913564 B                            0.6541  (13 files)



Show Checksums
ffp
01 Cold Rain And Snow.flac:9b8e1aa1b10b7ca41af7f4a227370bf5
02 New Minglewood Blues.flac:30ca45e0f0b72c5b23571820e6148305
03 Ramble On Rose.flac:d4549c8061bb4b620389332a8d1de671
04 My Brother Esau.flac:fbd6aab82202a9ce97b48cb4a17426a7
05 It Must Have Been The Roses.flac:fa73251a49670d657a13f6da32a6e26c
06 Cassidy.flac:6251bd8c7530552d7f34228da09dabb1
07 Cumberland Blues.flac:7a73dde687fad1ae2baa9bab858e062d
08 Looks Like Rain.flac:406ad2c79859636e6e505762365de5ea
09 Might As Well.flac:4a60a0bc72cd83c3b839d596a4ae2ca2
10 Tuning.flac:c933e79fc5e8e6b7e336f44edbaeaa47
11 Help On The Way.flac:65bb7b5243965438dab39e4069e8fce0
12 Slipknot!.flac:ac4721f92cca602cb4c6a842ac90456f
13 Franklin's Tower.flac:d8755e2fc15863cc08a092cdc08b2eea
flac-md5
1f3e8416f02f652a1028359e5c368c6b *01 Cold Rain And Snow.flac
376262d6fbce299a504451b6e78746df *02 New Minglewood Blues.flac
3c334cc8caf2eeb0b88643511f0b4ac3 *03 Ramble On Rose.flac
97ed4a237244834cb73cfc20da73577b *04 My Brother Esau.flac
661e7a88851318a0094b365cea2e2f0a *05 It Must Have Been The Roses.flac
1f45afd946adb942385d82ef02d8d339 *06 Cassidy.flac
cfcdc4e5e1ef4b058293a7c21c2480c6 *07 Cumberland Blues.flac
ef18dcd32fe5dbabd89aa19d351535a2 *08 Looks Like Rain.flac
df97fe6ac64af6b005cbc9d4942935bf *09 Might As Well.flac
34d65552c176f2fdf2cbe341b319b1fc *10 Tuning.flac
109445290a6bf6378405913cd4cbe38d *11 Help On The Way.flac
2db0549678ad1ce2827e037159826b1d *12 Slipknot!.flac
e8b58a8154a24e60e550db28ad3a50c1 *13 Franklin's Tower.flac

Comments
Add Comment
Other Sources (comments)
unknown aud (could be FOB... (2) SBD > Cassette Master > Dat... (0) flac16; Source: FOB... (0) flac16; Sennheiser... (0) flac16; Recording... (0) flac16; SBD and... (0) 2 Beyer M160>Sony TCD5M... (0) flac16; Lineage:... (0) flac16; Source: 2... (0) flac24; Updated... (0) flac16; 2 Source... (0) flac24; Master... (0) flac16; Master... (0) flac24; Updated... (2) flac16; Updated... (2) flac24; Partial Show... (0)
Date User Comment