Browse Collections Artists Sources   Search Dates

Add Show    List Management    Help


Grateful Dead 10/02/80
Warfield Theater, San Francisco, CA
Comments Add Comment    Source Collectors    Add to Collection    Add to Want List    History
Source # 141014 Other Sources
Entered by Matt Vernon
Checksums ffp , flac-md5
Disc Counts 0 / 0
Media Size Compressed: 539.87 MB (566095872 bytes)
Date Circulated
Date Added
02/14/2018
02/14/2018
Source Summary flac16; Partial Show Recording Info: AKG Mics (m/s) > Cassette Master (Sony TC-D5M/Maxell UD-XLII/Dolby B); Transfer Info: Cassette Master (Nakamichi CR-7A/Dolby B) > Tascam DA-3000 (DSF 1-bit/5.8 MHz) > KORG AudioGate 4 > Samplitude Pro X3 Suite > FLAC/24; All Transfers and Mastering By Charlie Miller 
  Archive
Source Information - Download Text | Download Zip
Grateful Dead - October 2, 1980
Warfield Theatre - San Francisco, CA

Recording Info:
AKG Mics (m/s) > Cassette Master (Sony TC-D5M/Maxell UD-XLII/Dolby B)

Transfer Info:
Cassette Master (Nakamichi CR-7A/Dolby B) > Tascam DA-3000 (DSF 1-bit/5.8 MHz) >
KORG AudioGate 4 > Samplitude Pro X3 Suite > FLAC/24
(1 Disc FLAC)

All Transfers and Mastering By Charlie Miller
[email protected]
January 22, 2018

Patch Info:
Nakamichi 700 > Cassette Master > Reel (shnid=89111) supplies:
I Know You Rider (3:50 - end of track)

Notes:
-- It appears to be the middle tape of a 3 tape show
-- Recorded by The Grateful Dead crew at the sound booth
-- This may be from Dan Healy's AKG 414's but I can not confirm
-- This file set is 16 bit

Set 2:
01 - Tuning
02 - It Must Have Been The Roses
03 - It's All Over Now
04 - Loser >
05 - Looks Like Rain
06 - China Cat Sunflower >
07 - I Know You Rider

Set 3:
08 - Comes A Time >
09 - Lost Sailor >
10 - Saint Of Circumstance >
11 - Terrapin Station >
12 - Playing In The Band >
13 - Drums >
14 - Space (cut)


SHNTOOL OUTPUT:
    length     expanded size    cdr  WAVE problems  fmt   ratio  filename
     1:16.35       13488764 B   ---   --   ---xx   flac  0.5012  01 Tuning.flac
     8:16.47       87604988 B   ---   --   ---xx   flac  0.5372  02 It Must Have Been The Roses.flac
     9:26.36       99927116 B   ---   --   ---xx   flac  0.5906  03 It's All Over Now.flac
     6:56.66       73537676 B   ---   --   ---xx   flac  0.5619  04 Loser.flac
     9:58.33      105564860 B   ---   --   ---xx   flac  0.5271  05 Looks Like Rain.flac
     6:28.53       68567900 B   ---   --   ---xx   flac  0.5966  06 China Cat Sunflower.flac
     6:17.71       66669836 B   ---   --   ---xx   flac  0.6118  07 I Know You Rider.flac
     7:16.35       76992764 B   ---   --   ---xx   flac  0.5268  08 Comes A Time.flac
     6:43.59       71228012 B   ---   --   ---xx   flac  0.5682  09 Lost Sailor.flac
     7:00.04       74097452 B   ---   --   ---xx   flac  0.6094  10 Saint Of Circumstance.flac
    11:55.04      126135452 B   ---   --   ---xx   flac  0.5724  11 Terrapin Station.flac
     6:02.60       63997964 B   ---   --   ---xx   flac  0.5874  12 Playing In The Band.flac
     6:31.09       68993612 B   ---   --   ---xx   flac  0.5019  13 Drums.flac
     0:43.28        7651100 B   ---   --   ---xx   flac  0.5153  14 Space.flac
    94:54.15     1004457496 B                            0.5636  (14 files)




Show Checksums
ffp
01 Tuning.flac:83984940c47623fba31b2e1e4aad27d4
02 It Must Have Been The Roses.flac:832566b67eac17eaaa989c00b7d4636e
03 It's All Over Now.flac:f56357865e8260ec7da8ec6ee6445129
04 Loser.flac:0be81ab513fb38e95810a30144ae2cd7
05 Looks Like Rain.flac:aa6b214bf21e845e3aa4c7fc7dc5647d
06 China Cat Sunflower.flac:a176358fc044a9b97f54bf4834a5bf5c
07 I Know You Rider.flac:262f6c3af51a9b0cba99d2e0214d686b
08 Comes A Time.flac:5b548e1c3b93298402d0e5841dab6f0a
09 Lost Sailor.flac:3ce3d70816d128c31ec4d9b103113dc6
10 Saint Of Circumstance.flac:91b3e7bf8fa9bb444efd08f44cd95973
11 Terrapin Station.flac:dd84952f9dd2664331817979ffd10561
12 Playing In The Band.flac:9718c3bbb828118393e0d2cf3dbca793
13 Drums.flac:9931790132b3b8760a35bb91b6c758bf
14 Space.flac:c2088b957d2d8e9d5ebe5c2ca0875f23
flac-md5
7a90a64b0d79683d49fc4e87b9bd3b1b *01 Tuning.flac
b5e5c6dd57ebb9f8ff16ce3680aaa97c *02 It Must Have Been The Roses.flac
e3bcfcfc4e023bf9f4d31f5d85d4e1ae *03 It's All Over Now.flac
8becc848f5677f43fc4fa6e63252232a *04 Loser.flac
ba6f083c8e32ec4003ec5f87c34b8e6e *05 Looks Like Rain.flac
cf88b4ae0195dab578ac3a79d25c6876 *06 China Cat Sunflower.flac
396709a0c5eea1637ba0091b43dc79c1 *07 I Know You Rider.flac
9491d7e21d98acac522e99760719e3d0 *08 Comes A Time.flac
dc194a0ba9e10120ddf0f160f8c364fe *09 Lost Sailor.flac
926f067a2f88a9223a9382de1af71a59 *10 Saint Of Circumstance.flac
e55ba3ad0290bd6f97d9b715262695b0 *11 Terrapin Station.flac
ed811abe911b7a0aa997dc08790e93dd *12 Playing In The Band.flac
5dace532ed8060eda9ee00f6d86c1ca0 *13 Drums.flac
41e673c772c868b6698a273baeef5d40 *14 Space.flac

Comments
Add Comment
Other Sources (comments)
set 3; SBD-> Master... (2) Acoustic set; SBD> MR>... (2) acoustic and electric sets;... (0) flac16; Recording by... (0) flac16; Acoustic... (1) flac16; Acoustic Set... (0) flac16; Recording... (0) flac16; SBD > ? >... (0) flac24; Partial Show... (0)
Date User Comment