Browse Collections Artists Sources   Search Dates

Add Show    List Management    Help


Grateful Dead 10/21/88
Reunion Arena, Dallas, TX
Comments Add Comment    Source Collectors    Add to Collection    Add to Want List    History
Source # 141026 Other Sources
Entered by Matt Vernon
Checksums ffp , flac-md5
Disc Counts 0 / 0
Media Size
Date Circulated
Date Added

02/15/2018
Source Summary flac16/44.1 Source Info: FOB Schoeps CMC 4 Mk4-> Sony F1 PCM-> DAT (Lance Deal?) Transfer Info: Dat Tape (Panasonic SV-3700)-> Marantz CDR-615-> CD (Late 90's) Extract Wav-> Flac Level 8-> Tagged (16/44.1) Transfers by Pete Ebel 
  Archive
Source Information - Download Text | Download Zip
Grateful Dead
Reunion Arena - Dallas - TX
October 21, 1988



Source Info:
FOB Schoeps CMC 4 Mk4-> Sony F1 PCM-> DAT (Lance Deal?)


Transfer Info:
Dat Tape (Panasonic SV-3700)-> Marantz CDR-615-> CD (Late 90's)
Extract Wav-> Flac Level 8-> Tagged (16/44.1)


Transfers by Pete Ebel
Late 90's and February 14, 2018


Notes:
* Added a Few DB's to first set to closely match Second Set.
* Set #2 is Seamless


Set #1:
01. Let The Good Times Roll
02. Feel's Like A Stranger
03. Franklins Tower
04. Walking Blues
05. Believe It Or Not
06. Memphis Blues
07. Dupree's Diamond Blues
08. Jack Straw

Set #2:
09. Tuning
10. Happy Birthday Brent
11. Wang Dang Doodle
12. Victim' Or The Crime
13. Foolish Heart
14. Women Are Smarter
15. Drumz
16. Space
17. I Will Take You Home
18. Going Down The Road Feeling Bad
19. All Along The Watchtower
20. Stella Blue
21. Sugar Magnolia

Encore:
22. Brokedown Palace




SHNTOOL OUTPUT:
    length     expanded size    cdr  WAVE problems  fmt   ratio  filename
     4:47.13       50657420 B   ---   --   ---xx   flac  0.5445  01 Let The Good Times Roll.flac
     6:35.73       69849740 B   ---   --   ---xx   flac  0.5412  02 Feel's Like A Stranger.flac
     7:32.42       79831628 B   ---   --   ---xx   flac  0.5559  03 Franklins Tower.flac
     6:49.29       72215852 B   ---   --   ---xx   flac  0.5213  04 Walking Blues.flac
     6:47.51       71914796 B   ---   --   ---xx   flac  0.5140  05 Believe It Or Not.flac
    10:48.13      114337820 B   ---   --   ---xx   flac  0.5499  06 Memphis Blues.flac
     5:45.69       61020332 B   ---   --   ---xx   flac  0.5499  07 Dupree's Diamond Blues.flac
     5:42.09       60350012 B   ---   --   ---xx   flac  0.5533  08 Jack Straw.flac
     1:30.30       15946604 B   ---   --   ---xx   flac  0.4463  09 Tuning.flac
     0:37.47        6637388 B   ---   --   ---xx   flac  0.5119  10 Happy Birthday Brent.flac
     6:22.56       67516556 B   ---   --   ---xx   flac  0.5506  11 Wang Dang Doodle.flac
     6:02.02       63861548 B   ---   --   ---xx   flac  0.5418  12 Victim Or The Crime.flac
    11:47.71      124881836 B   ---   --   ---xx   flac  0.5427  13 Foolish Heart.flac
     7:44.48       81962540 B   ---   --   ---xx   flac  0.5613  14 Women Are Smarter.flac
     9:04.15       95996924 B   ---   --   ---xx   flac  0.4989  15 Drumz.flac
     6:08.37       65002268 B   ---   --   ---xx   flac  0.4777  16 Space.flac
     4:07.25       43629644 B   ---   --   ---xx   flac  0.4412  17 I Will Take You Home.flac
     6:14.20       66020684 B   ---   --   ---xx   flac  0.5375  18 Going Down The Road Feeling Bad.flac
     5:30.07       58228508 B   ---   --   ---xx   flac  0.5677  19 All Along The Watchtower.flac
     8:30.25       90022844 B   ---   --   ---xx   flac  0.4928  20 Stella Blue.flac
    11:05.62      117451868 B   ---   --   ---xx   flac  0.5606  21 Sugar Magnolia.flac
     6:22.53       67509500 B   ---   --   ---xx   flac  0.4998  22 Brokedown Palace.flac
   145:57.47     1544846312 B                            0.5314  (22 files)



Show Checksums
ffp
01 Let The Good Times Roll.flac:3113895788e0756cec6052e8a3e0c3db
02 Feel's Like A Stranger.flac:fe0221079ea13b221c13a532278869c6
03 Franklins Tower.flac:cc81d2b3c793340e3c818a651791f4f9
04 Walking Blues.flac:f82587dc59dde1bef4f688bd56f29b90
05 Believe It Or Not.flac:68ab9b0e4d1f6dbc10d22e191547c5d7
06 Memphis Blues.flac:7cb40a885a56035fd15609bfdc2dbf79
07 Dupree's Diamond Blues.flac:6b66c8817d5ccf7843741f6a3bba3d00
08 Jack Straw.flac:24b787f87eb83be0399759811b211afd
09 Tuning.flac:34d47432d3d92a7c56741ae25bcb9b7e
10 Happy Birthday Brent.flac:7429b716da475ea25ed05e2193682b92
11 Wang Dang Doodle.flac:ea315ae66487f996df2934e11e384173
12 Victim Or The Crime.flac:b45432c631c3d96d201dda2356c1e65f
13 Foolish Heart.flac:f806e22eae6fd3e6803277cbeeaff4c0
14 Women Are Smarter.flac:9cd8f218272cee37521bd722fe3a773c
15 Drumz.flac:18214db10c2f5c18d7f8a0198b8e9168
16 Space.flac:d3bac17cadd4a83963a62f9084121fd1
17 I Will Take You Home.flac:92459bbbc3a9f42424074f807bb71c1b
18 Going Down The Road Feeling Bad.flac:17190fa068702ab4dbae288a4ccabac1
19 All Along The Watchtower.flac:7473d88229846a2050b3613d2d768ab4
20 Stella Blue.flac:d275ab4ced99a8a3601d82407f0c2a84
21 Sugar Magnolia.flac:2d36ba6bb46e5ce270449327e471c36b
22 Brokedown Palace.flac:d0181726264018079769a2d3bae4b0dd
flac-md5
05eb95fc7066c5ab2bd70075f0a91071 *01 Let The Good Times Roll.flac
323af3e0e8addfaab010f597d4856bd3 *02 Feel's Like A Stranger.flac
419e4688f231e3687927c96eebbba0cc *03 Franklins Tower.flac
108fa4fe45c1a659e8457b826fabd02e *04 Walking Blues.flac
8bd2c997236392c4d44c3a1f871b066c *05 Believe It Or Not.flac
dda345e6e3c0560f6c57b5ea4bf7d4a0 *06 Memphis Blues.flac
88d1a5ca7f0d92a6418c44a89482769c *07 Dupree's Diamond Blues.flac
347f1760dfa140b2c9241e4931419fe5 *08 Jack Straw.flac
9971b61fcc1aeb232b6b354b68c9a03a *09 Tuning.flac
b32bc120e6cef264ce029c3b5ae489a0 *10 Happy Birthday Brent.flac
072e9ec0873dbb1aff6fb18c38214f95 *11 Wang Dang Doodle.flac
ef24f31482f3129bac692a3e31be6cb0 *12 Victim Or The Crime.flac
f0544445d6f21db45ed27ea19eedab98 *13 Foolish Heart.flac
18d7e9796bf400ff4e4bbfcf6092f89e *14 Women Are Smarter.flac
bf0ba62e14a74d394f53106de946b3c4 *15 Drumz.flac
7d560b87c0073966ceeda15677d8b146 *16 Space.flac
7103c3729d3820ff4accfe2dfed145da *17 I Will Take You Home.flac
7f4e0f8dd80dfa642ff465f92f1e9fdb *18 Going Down The Road Feeling Bad.flac
4e20483e54854358d21654afa59dc4d7 *19 All Along The Watchtower.flac
6bda2801ae700c6fe0a849ebb558017d *20 Stella Blue.flac
d92aad2eb5781dd6b76e74273ee74941 *21 Sugar Magnolia.flac
baf81ff89ba503936c7d08c30578436b *22 Brokedown Palace.flac

Comments
Add Comment
Other Sources (comments)
MSC>?>DAT>CDR Eac > cool... (0) Recording Info: SBD ->... (0) Unknown Nakamichi mics > ?... (0) flac24; Master... (0) flac16; Master... (0) flac16; Source Info:... (0)
Date User Comment