Browse Collections Artists Sources   Search Dates

Add Show    List Management    Help


Grateful Dead 08/18/89
The Greek Theatre - University of California, Berkeley, CA
Comments Add Comment    Source Collectors    Add to Collection    Add to Want List    History
Source # 141056 Other Sources
Entered by Matt Vernon
Checksums flac-md5 , ffp
Disc Counts 0 / 0
Media Size Compressed: 638.87 MB (669900800 bytes)
Date Circulated
Date Added
02/17/2018
02/16/2018
Source Summary flac16; Set 2 Recording Info: Master Soundboard Ultramatrix DAT > Hi-Fi VHS; Transfer Info: Hi-Fi VHS (Sony SLV-M20HF)> Tascam DA-3000 (DSF 1-bit/5.8 MHz) > dBpoweramp 24/96 > Adobe Audition 3.0 > TLH flac2496 
  Archive
Source Information - Download Text | Download Zip
Grateful Dead
Greek Theatre
University of California
Berkeley, CA
Friday August 18, 1989

Recording Info:
Master Soundboard Ultramatrix DAT > Hi-Fi VHS

Transfer Info:
Hi-Fi VHS (Sony SLV-M20HF)> Tascam DA-3000 (DSF 1-bit/5.8 MHz) > dBpoweramp 24/96 > Adobe Audition 3.0 > TLH flac2496

Notes:
- Thanks to David Gans for the Hi-Fi VHS source
- Thanks to Charlie Miller for the transfer
- Rex Foundation Benefit
- Channels corrected
- This file set is 16 bit

Mastered by Scott Clugston
January 18, 2018

Set 2:
t01 - Tuning
t02 - Iko Iko
t03 - Looks Like Rain
t04 - Terrapin Station ->
t05 - Drums ->
t06 - Space ->
t07 - Crazy Fingers ->
t08 - I Need A Miracle ->
t09 - Stella Blue ->
t10 - Throwing Stones ->
t11 - Turn On Your Lovelight
t12 - Encore Break
t13 - Black Muddy River
t14 - And We Bid You Good Night
t15 - Commentary/Interviews



    length     expanded size    cdr  WAVE problems  fmt   ratio  filename
     1:38.73       17458940 B   ---   --   ---xx   flac  0.4029  gd89-08-18 s2 t01 Tuning.flac
     6:32.32       69224108 B   ---   --   ---xx   flac  0.6139  gd89-08-18 s2 t02 Iko Iko.flac
    10:14.68      108469580 B   ---   --   ---xx   flac  0.5398  gd89-08-18 s2 t03 Looks Like Rain.flac
    12:40.00      134064044 B   ---   --   ---xx   flac  0.5813  gd89-08-18 s2 t04 Terrapin Station.flac
    11:43.28      124075100 B   ---   --   ---xx   flac  0.4997  gd89-08-18 s2 t05 Drums.flac
     9:40.46      102420236 B   ---   --   ---xx   flac  0.4468  gd89-08-18 s2 t06 Space.flac
     9:11.10       97219964 B   ---   --   ---xx   flac  0.5658  gd89-08-18 s2 t07 Crazy Fingers.flac
     4:52.02       51513548 B   ---   --   ---xx   flac  0.6293  gd89-08-18 s2 t08 I Need A Miracle.flac
     8:43.44       92360732 B   ---   --   ---xx   flac  0.5397  gd89-08-18 s2 t09 Stella Blue.flac
     8:46.15       92821724 B   ---   --   ---xx   flac  0.6177  gd89-08-18 s2 t10 Throwing Stones.flac
     6:38.64       70357772 B   ---   --   ---xx   flac  0.6144  gd89-08-18 s2 t11 Turn On Your Lovelight.flac
     3:27.25       36573644 B   ---   --   ---xx   flac  0.4509  gd89-08-18 s2 t12 Encore Break.flac
     7:04.11       74819516 B   ---   --   ---xx   flac  0.5551  gd89-08-18 s2 t13 Black Muddy River.flac
     2:53.22       30568988 B   ---   --   ---xx   flac  0.5308  gd89-08-18 s2 t14 And We Bid You Goodnight.flac
    13:30.43      142985180 B   ---   --   ---xx   flac  0.4476  gd89-08-18 s2 t15 Commentary_Interviews.flac
   117:37.33     1244933076 B                            0.5381  (15 files)


Show Checksums
flac-md5
26031c769274e0f62bc2e71db8dea483 *gd89-08-18 s2 t01 Tuning.flac
e4887ca1cdfae11e47b397267c557e4d *gd89-08-18 s2 t02 Iko Iko.flac
98c6700164ba5c411b89a895d57199b6 *gd89-08-18 s2 t03 Looks Like Rain.flac
6d5f5fbfa366f843978160b6ecdf95b2 *gd89-08-18 s2 t04 Terrapin Station.flac
8f267adba5871bb196397bb2002e685b *gd89-08-18 s2 t05 Drums.flac
c06c0bb25126b253d848067d78aafb14 *gd89-08-18 s2 t06 Space.flac
1a02b883194f171f245063dbcd650c3a *gd89-08-18 s2 t07 Crazy Fingers.flac
1ba0dd173e3cf2a7895a81b23338ca99 *gd89-08-18 s2 t08 I Need A Miracle.flac
8ee1db8871ed2ec7b58934945e472c38 *gd89-08-18 s2 t09 Stella Blue.flac
496f02f2a64ed322c1554b40d54c832a *gd89-08-18 s2 t10 Throwing Stones.flac
582bc15231c5cacc42f5db575115ddbc *gd89-08-18 s2 t11 Turn On Your Lovelight.flac
6a6dda60674a0735deef73c1cb3561ee *gd89-08-18 s2 t12 Encore Break.flac
47d6c18da83b90e02da61dc6d5922df6 *gd89-08-18 s2 t13 Black Muddy River.flac
9ca111684cccf39470efe0b249749815 *gd89-08-18 s2 t14 And We Bid You Goodnight.flac
59eb392c14d03017027c6ebf6719d2f0 *gd89-08-18 s2 t15 Commentary_Interviews.flac
ffp
gd89-08-18 s2 t01 Tuning.flac:b3841bad1f72f45ec651a9f7836f82c7
gd89-08-18 s2 t02 Iko Iko.flac:25afa4886f413cec765c16aaa32c5422
gd89-08-18 s2 t03 Looks Like Rain.flac:1f58bf76d5b5906c48d089bf0621edff
gd89-08-18 s2 t04 Terrapin Station.flac:6fcda7c2797dc861b23b4aae6b91d872
gd89-08-18 s2 t05 Drums.flac:5d11d1386a5ad23c64cc2ab07facba46
gd89-08-18 s2 t06 Space.flac:ef16b086348c7cd21ddd703eaafea73d
gd89-08-18 s2 t07 Crazy Fingers.flac:85006073e066f31679982b2282249fee
gd89-08-18 s2 t08 I Need A Miracle.flac:91520d92847435cc705b20f082def810
gd89-08-18 s2 t09 Stella Blue.flac:cc3053310e7a4e1e78be5e29c7033f3f
gd89-08-18 s2 t10 Throwing Stones.flac:4a706d45bd757b8a2360c7ec56c58ab5
gd89-08-18 s2 t11 Turn On Your Lovelight.flac:90f87230dcd36fe111dab3cdc580792e
gd89-08-18 s2 t12 Encore Break.flac:7208a821d3c91e49390c3b97e47523da
gd89-08-18 s2 t13 Black Muddy River.flac:6b52e23eb57d01474b8e5be27350282d
gd89-08-18 s2 t14 And We Bid You Goodnight.flac:3d62633c3d56bd926370f124c4fef92b
gd89-08-18 s2 t15 Commentary_Interviews.flac:bece7b7580101aaad86dc91fd3332c8a

Comments
Add Comment
Other Sources (comments)
Healy Matrix Digital SBD >... (4) Jay Ashley (Bertha)... (1) Seamless fix of (0) flac16; Recording... (0) flac16; AUD:... (0) flac16; LINEAGE: 2x... (0) flac16; RECORDED BY:... (0) flac16; Source: 2... (0) flac16; Source info:... (0) flac24 96khz Akg... (0) flac16 44.1khz ... (0) flac24; Set 2... (0) flac24; Set 2... (0) flac16; Recording... (0)
Date User Comment