Browse Collections Artists Sources   Search Dates

Add Show    List Management    Help


Garcia 11/12/91
The Spectrum, Philadelphia, PA
Comments Add Comment    Source Collectors    Add to Collection    Add to Want List    History
Source # 141057 Other Sources
Entered by Joe Jupille
Checksums jg1991-11-12..ffp , jg1991-11-12..md5
Disc Counts 0 / 0
Media Size Compressed: 779.09 MB (816939008 bytes)
Date Circulated
Date Added
02/16/2018
02/16/2018
Source Summary JGB; flac16; : (FOB) Unknown Sony Mics > Sony TC-D5 > Sony WMD-6 > Master Cassette; Transfer: Master Cassette > Sony WMD-6 > Edirol R09-HR > wav 24/48 Lineage: iZotope RX6 Advanced > iZotope Ozone 5 Advanced > CD Wave > TLH > Flac 24; edited and mastered SIRMick January 2018 
Source Information - Download Text | Download Zip
Jerry Garcia Band
The Spectrum,
Philadelphia, PA
11/12/1991

Source : (FOB) Unknown Sony Mics > Sony TC-D5 > Sony WMD-6 > Master Cassette
Transfer: Master Cassette > Sony WMD-6 > Edirol R09-HR > wav  24/48
Lineage: iZotope RX6 Advanced > iZotope Ozone 5 Advanced > CD Wave > TLH > Flac 24



Set I

01   tuning
02   How Sweet It Is (To Be Loved By You)
03   And It Stoned Me
04   He Ain't Give You None
05   Run for the Roses
06   Struggling Man
07   Ain't No Bread In The Breadbox
08   My Sisters And Brothers
09   Deal


Set II

01   Bright Side Of The Road
02   Shining Star
03   Waiting For A Miracle
04   Knockin' On Heaven's Door
05   Evangeline
06   Don't Let Go
07   Let's Spend The Night Together

encore

Wonderful World




Jerry Garcia - guitar, vocals
John Kahn - bass
David Kemper - drums
Melvin Seals - Hammond B3
Jackie LaBranch - backing vocals
Gloria Jones - backing vocals



Comments:

John was patched out of a friend but can't recall what mics he was using.


Notes:

- John was a little late getting to his seat because of problems with security so missed the start.  Track 1 and the first 1:45 of  "How Sweet It Is" have been patched in.  I also patched in a small section of crowd after "Evangeline" for continuity purposes. Source used is shnid 97072 - Thank you Jeff Travitz and David Minches.
- This file set is 16 bit


A BS Production

Taped and transferred by John Bleich

edited and mastered
SIRMick
January 2018


shntool output:

    length     expanded size    cdr  WAVE problems  fmt   ratio  filename
     1:00.39       10675772 B   ---   --   ---xx   flac  0.4790  jgb19991-11-12s1t01.flac
     7:17.70       77251484 B   ---   --   ---xx   flac  0.5268  jgb19991-11-12s1t02.flac
     9:57.71      105477836 B   ---   --   ---xx   flac  0.5301  jgb19991-11-12s1t03.flac
    10:58.62      116217068 B   ---   --   ---xx   flac  0.5314  jgb19991-11-12s1t04.flac
     6:13.37       65884268 B   ---   --   ---xx   flac  0.5384  jgb19991-11-12s1t05.flac
     7:42.65       81649724 B   ---   --   ---xx   flac  0.5389  jgb19991-11-12s1t06.flac
     8:35.18       90888380 B   ---   --   ---xx   flac  0.5574  jgb19991-11-12s1t07.flac
     3:59.51       42279596 B   ---   --   ---xx   flac  0.5384  jgb19991-11-12s1t08.flac
     9:08.22       96718988 B   ---   --   ---xx   flac  0.5766  jgb19991-11-12s1t09.flac
     6:03.21       64082636 B   ---   --   ---xx   flac  0.5808  jgb19991-11-12s2t01.flac
    10:35.12      112042268 B   ---   --   ---xx   flac  0.5819  jgb19991-11-12s2t02.flac
     6:31.08       68991260 B   ---   --   ---xx   flac  0.5831  jgb19991-11-12s2t03.flac
    11:08.46      117943436 B   ---   --   ---xx   flac  0.5493  jgb19991-11-12s2t04.flac
     6:56.43       73483580 B   ---   --   ---xx   flac  0.5809  jgb19991-11-12s2t05.flac
    14:21.38      151969820 B   ---   --   ---xx   flac  0.5591  jgb19991-11-12s2t06.flac
    11:36.19      122819132 B   ---   --   ---xx   flac  0.5975  jgb19991-11-12s2t07.flac
     6:24.59       67876412 B   ---   --   ---xx   flac  0.5346  jgb19991-11-12s2t08.flac
   138:32.06     1466251660 B                            0.5571  (17 files)



Show Checksums
jg1991-11-12..ffp
jgb19991-11-12s1t01.flac:321b8ddd2d0f7ed502f8dc8d3f9ddca9
jgb19991-11-12s1t02.flac:2b0509109275d041a3ab018662381dd2
jgb19991-11-12s1t03.flac:fd693ccdf6fa973c0c414bf8348dd4f3
jgb19991-11-12s1t04.flac:56605f7e340833679f1602c7d2459289
jgb19991-11-12s1t05.flac:907381cfef37ca5c20495872b9139f80
jgb19991-11-12s1t06.flac:f93920cf03a7f3f991d955aa421a9689
jgb19991-11-12s1t07.flac:6054f39c70f3eaa3df7a40204b9f84bb
jgb19991-11-12s1t08.flac:5fe8bfd74a6bd59ea66cc3b41121d2a9
jgb19991-11-12s1t09.flac:6b26516db1ffc12af83aa51f57c578a7
jgb19991-11-12s2t01.flac:4f72f1e56296ca9320cecb01ad510367
jgb19991-11-12s2t02.flac:3df865e5c05aec0a3c4a995e5608de9e
jgb19991-11-12s2t03.flac:0c4bc75b6dfa1cc9d59b9a46ee3927d9
jgb19991-11-12s2t04.flac:80f9b0a1ff33d8555524e68aa8cd4ef7
jgb19991-11-12s2t05.flac:57b7dbebfe5cd8386d40705dfe4c4eca
jgb19991-11-12s2t06.flac:42a01562289663711a1b6b6227605831
jgb19991-11-12s2t07.flac:1c7fb5fd874acf4661a4040dc288d283
jgb19991-11-12s2t08.flac:d21a8af252c06bc6e90374aba2e3da67
jg1991-11-12..md5
dcf41c87091a279c12dd3deb15519975 *jgb19991-11-12s1t01.flac
004795b23dde201b2301d9c54ab218f3 *jgb19991-11-12s1t02.flac
bf4b47f050400ca4162f6c39698b2c87 *jgb19991-11-12s1t03.flac
86a14803f2165f5d91bb13e43b6f5a87 *jgb19991-11-12s1t04.flac
47e16b4cf0dfab91ce9d84952d7b9de7 *jgb19991-11-12s1t05.flac
70d5a516fd31a3c2878838fa08c18649 *jgb19991-11-12s1t06.flac
5d6b118d06403954b3a067847802e0a4 *jgb19991-11-12s1t07.flac
8015e585eced8f889fdc3a340ffbebd7 *jgb19991-11-12s1t08.flac
0290bb0b312afce425f3a04f913b155f *jgb19991-11-12s1t09.flac
74a5a1405a41e27f5d0b26f636e246e6 *jgb19991-11-12s2t01.flac
60794f21d2151d84fac81c91e1574fc1 *jgb19991-11-12s2t02.flac
ba1a12cdf66b9ecb0b5af1a09cb5b19e *jgb19991-11-12s2t03.flac
65533d7dfecfb017e18cfa737526ebec *jgb19991-11-12s2t04.flac
53b857680491217920a289eff3fe30ca *jgb19991-11-12s2t05.flac
7fd3983beb6ea47bb11ad58fd86e0223 *jgb19991-11-12s2t06.flac
747fb4a922d641299a912c16080cec94 *jgb19991-11-12s2t07.flac
4be26c7aed0af106e2b069f25755ab69 *jgb19991-11-12s2t08.flac

Comments
Add Comment
Other Sources (comments)
Jerry Garcia Band: FOB (NAK... (5) JGB; flac24; : (FOB)... (0)
Date User Comment